  0
SECTION
  2
HEADER
  9
$ACADVER
  1
AC1015
  9
$ACADMAINTVER
 70
     6
  9
$DWGCODEPAGE
  3
DOS932
  9
$INSBASE
 10
0.0
 20
0.0
 30
0.0
  9
$EXTMIN
 10
0.0
 20
0.0
 30
0.0
  9
$EXTMAX
 10
297.0
 20
210.0
 30
0.0
  9
$LIMMIN
 10
0.0
 20
0.0
  9
$LIMMAX
 10
297.0
 20
210.0
  9
$ORTHOMODE
 70
     0
  9
$REGENMODE
 70
     1
  9
$FILLMODE
 70
     1
  9
$QTEXTMODE
 70
     0
  9
$MIRRTEXT
 70
     1
  9
$LTSCALE
 40
0.25
  9
$ATTMODE
 70
     1
  9
$TEXTSIZE
 40
3.5
  9
$TRACEWID
 40
0.05
  9
$TEXTSTYLE
  7
Standard
  9
$CLAYER
  8
0
  9
$CELTYPE
  6
Continuous
  9
$CECOLOR
 62
   256
  9
$CELTSCALE
 40
1.0
  9
$DISPSILH
 70
     0
  9
$DIMSCALE
 40
1.0
  9
$DIMASZ
 40
2.0
  9
$DIMEXO
 40
2.0
  9
$DIMDLI
 40
10.0
  9
$DIMRND
 40
0.0
  9
$DIMDLE
 40
0.0
  9
$DIMEXE
 40
2.0
  9
$DIMTP
 40
0.0
  9
$DIMTM
 40
0.0
  9
$DIMTXT
 40
3.5
  9
$DIMCEN
 40
0.09
  9
$DIMTSZ
 40
0.0
  9
$DIMTOL
 70
     0
  9
$DIMLIM
 70
     0
  9
$DIMTIH
 70
     0
  9
$DIMTOH
 70
     0
  9
$DIMSE1
 70
     0
  9
$DIMSE2
 70
     0
  9
$DIMTAD
 70
     3
  9
$DIMZIN
 70
     0
  9
$DIMBLK
  1

  9
$DIMASO
 70
     1
  9
$DIMSHO
 70
     1
  9
$DIMPOST
  1

  9
$DIMAPOST
  1

  9
$DIMALT
 70
     0
  9
$DIMALTD
 70
     2
  9
$DIMALTF
 40
25.4
  9
$DIMLFAC
 40
1.0
  9
$DIMTOFL
 70
     1
  9
$DIMTVP
 40
0.7
  9
$DIMTIX
 70
     0
  9
$DIMSOXD
 70
     0
  9
$DIMSAH
 70
     0
  9
$DIMBLK1
  1

  9
$DIMBLK2
  1

  9
$DIMSTYLE
  2
Standard
  9
$DIMCLRD
 70
     0
  9
$DIMCLRE
 70
     0
  9
$DIMCLRT
 70
     0
  9
$DIMTFAC
 40
0.5
  9
$DIMGAP
 40
0.5
  9
$DIMJUST
 70
     0
  9
$DIMSD1
 70
     0
  9
$DIMSD2
 70
     0
  9
$DIMTOLJ
 70
     1
  9
$DIMTZIN
 70
     0
  9
$DIMALTZ
 70
     0
  9
$DIMALTTZ
 70
     0
  9
$DIMUPT
 70
     0
  9
$DIMDEC
 70
     2
  9
$DIMTDEC
 70
     4
  9
$DIMALTU
 70
     2
  9
$DIMALTTD
 70
     2
  9
$DIMTXSTY
  7
Standard
  9
$DIMAUNIT
 70
     0
  9
$DIMADEC
 70
     0
  9
$DIMALTRND
 40
0.0
  9
$DIMAZIN
 70
     0
  9
$DIMDSEP
 70
     0
  9
$DIMATFIT
 70
     3
  9
$DIMFRAC
 70
     0
  9
$DIMLDRBLK
  1

  9
$DIMLUNIT
 70
     2
  9
$DIMLWD
 70
     0
  9
$DIMLWE
 70
     0
  9
$DIMTMOVE
 70
     0
  9
$LUNITS
 70
     2
  9
$LUPREC
 70
     4
  9
$SKETCHINC
 40
0.1
  9
$FILLETRAD
 40
0.0
  9
$AUNITS
 70
     0
  9
$AUPREC
 70
     0
  9
$MENU
  1
acad
  9
$ELEVATION
 40
0.0
  9
$PELEVATION
 40
0.0
  9
$THICKNESS
 40
0.0
  9
$LIMCHECK
 70
     0
  9
$CHAMFERA
 40
0.0
  9
$CHAMFERB
 40
0.0
  9
$CHAMFERC
 40
0.0
  9
$CHAMFERD
 40
0.0
  9
$SKPOLY
 70
     0
  9
$TDCREATE
 40
2454697.746956019
  9
$TDUCREATE
 40
0.000000000
  9
$TDUPDATE
 40
2454697.746956019
  9
$TDUUPDATE
 40
0.000000000
  9
$TDINDWG
 40
0.0000000000
  9
$TDUSRTIMER
 40
0.0000000000
  9
$USRTIMER
 70
     1
  9
$ANGBASE
 50
0.0
  9
$ANGDIR
 70
     0
  9
$PDMODE
 70
     0
  9
$PDSIZE
 40
0.0
  9
$PLINEWID
 40
0.0
  9
$SPLFRAME
 70
     0
  9
$SPLINETYPE
 70
     6
  9
$SPLINESEGS
 70
     8
  9
$HANDSEED
  5
175
  9
$SURFTAB1
 70
     6
  9
$SURFTAB2
 70
     6
  9
$SURFTYPE
 70
     6
  9
$SURFU
 70
     6
  9
$SURFV
 70
     6
  9
$UCSBASE
  2

  9
$UCSNAME
  2

  9
$UCSORG
 10
0.0
 20
0.0
 30
0.0
  9
$UCSXDIR
 10
1.0
 20
0.0
 30
0.0
  9
$UCSYDIR
 10
0.0
 20
1.0
 30
0.0
  9
$UCSORTHOREF
  2

  9
$UCSORTHOVIEW
 70
     0
  9
$UCSORGTOP
 10
0.0
 20
0.0
 30
0.0
  9
$UCSORGBOTTOM
 10
0.0
 20
0.0
 30
0.0
  9
$UCSORGLEFT
 10
0.0
 20
0.0
 30
0.0
  9
$UCSORGRIGHT
 10
0.0
 20
0.0
 30
0.0
  9
$UCSORGFRONT
 10
0.0
 20
0.0
 30
0.0
  9
$UCSORGBACK
 10
0.0
 20
0.0
 30
0.0
  9
$PUCSBASE
  2

  9
$PUCSNAME
  2

  9
$PUCSORG
 10
0.0
 20
0.0
 30
0.0
  9
$PUCSXDIR
 10
1.0
 20
0.0
 30
0.0
  9
$PUCSYDIR
 10
0.0
 20
1.0
 30
0.0
  9
$PUCSORTHOREF
  2

  9
$PUCSORTHOVIEW
 70
     0
  9
$PUCSORGTOP
 10
0.0
 20
0.0
 30
0.0
  9
$PUCSORGBOTTOM
 10
0.0
 20
0.0
 30
0.0
  9
$PUCSORGLEFT
 10
0.0
 20
0.0
 30
0.0
  9
$PUCSORGRIGHT
 10
0.0
 20
0.0
 30
0.0
  9
$PUCSORGFRONT
 10
0.0
 20
0.0
 30
0.0
  9
$PUCSORGBACK
 10
0.0
 20
0.0
 30
0.0
  9
$USERI1
 70
     0
  9
$USERI2
 70
     0
  9
$USERI3
 70
     0
  9
$USERI4
 70
     0
  9
$USERI5
 70
     0
  9
$USERR1
 40
0.0
  9
$USERR2
 40
0.0
  9
$USERR3
 40
0.0
  9
$USERR4
 40
0.0
  9
$USERR5
 40
0.0
  9
$WORLDVIEW
 70
     1
  9
$SHADEDGE
 70
     3
  9
$SHADEDIF
 70
    70
  9
$TILEMODE
 70
     1
  9
$MAXACTVP
 70
    16
  9
$PINSBASE
 10
0.0
 20
0.0
 30
0.0
  9
$PLIMCHECK
 70
     0
  9
$PEXTMIN
 10
0.0
 20
0.0
 30
0.0
  9
$PEXTMAX
 10
297.0
 20
210.0
 30
0.0
  9
$PLIMMIN
 10
0.0
 20
0.0
  9
$PLIMMAX
 10
297.0
 20
210.0
  9
$UNITMODE
 70
     0
  9
$VISRETAIN
 70
     0
  9
$PLINEGEN
 70
     1
  9
$PSLTSCALE
 70
     0
  9
$TREEDEPTH
 70
  3020
  9
$CMLSTYLE
  2
Standard
  9
$CMLJUST
 70
     0
  9
$CMLSCALE
 40
1.0
  9
$PROXYGRAPHICS
 70
     0
  9
$MEASUREMENT
 70
     0
  9
$CELWEIGHT
370
     0
  9
$ENDCAPS
280
     0
  9
$JOINSTYLE
280
     0
  9
$LWDISPLAY
290
     0
  9
$INSUNITS
 70
     0
  9
$HYPERLINKBASE
  1

  9
$STYLESHEET
  1

  9
$XEDIT
290
     1
  9
$CEPSNTYPE
380
     0
  9
$PSTYLEMODE
290
     1
  9
$FINGERPRINTGUID
  2

  9
$VERSIONGUID
  2

  9
$EXTNAMES
290
     1
  9
$PSVPSCALE
 40
0.0
  0
ENDSEC
  0
SECTION
  2
CLASSES
  0
CLASS
  1
LWPOLYLINE
  2
AcDbPolyline
  3
AutoCAD 2000
 90
    32768
280
     0
281
     1
  0
CLASS
  1
IMAGE
  2
AcDbRasterImage
  3
ISM
 90
    32895
280
     0
281
     1
  0
CLASS
  1
OLE2FRAME
  2
AcDbOle2Frame
  3
AutoCAD 2000
 90
    32768
280
     0
281
     1
  0
CLASS
  1
HATCH
  2
AcDbHatch
  3
AutoCAD 2000
 90
    32768
280
     0
281
     1
  0
CLASS
  1
DICTIONARYVAR
  2
AcDbDictionaryVar
  3
AutoCAD 2000
 90
    32768
280
     0
281
     0
  0
CLASS
  1
RASTERVARIABLES
  2
AcDbRasterVariables
  3
ISM
 90
    32768
280
     0
281
     0
  0
CLASS
  1
IMAGEDEF
  2
AcDbRasterImageDef
  3
ISM
 90
    32768
280
     0
281
     0
  0
CLASS
  1
IMAGEDEF_REACTOR
  2
AcDbRasterImageDefReactor
  3
ISM
 90
    32769
280
     0
281
     0
  0
CLASS
  1
IDBUFFER
  2
AcDbIdBuffer
  3
AutoCAD 2000
 90
    32768
280
     0
281
     0
  0
CLASS
  1
SPATIAL_FILTER
  2
AcDbSpatialFilter
  3
AutoCAD 2000
 90
    32768
280
     0
281
     0
  0
CLASS
  1
XRECORD
  2
AcDbXrecord
  3
AutoCAD 2000
 90
    32768
280
     0
281
     0
  0
CLASS
  1
SORTENTSTABLE
  2
AcDbSortentsTable
  3
AutoCAD 2000
 90
    32768
280
     0
281
     0
  0
CLASS
  1
LAYER_INDEX
  2
AcDbLayerIndex
  3
AutoCAD 2000
 90
    32768
280
     0
281
     0
  0
CLASS
  1
SPATIAL_INDEX
  2
AcDbSpatialIndex
  3
AutoCAD 2000
 90
    32768
280
     0
281
     0
  0
CLASS
  1
OBJECT_PTR
  2
CAseDLPNTableRecord
  3
"ASE-LPNTableRecord"
 90
    32769
280
     0
281
     0
  0
CLASS
  1
LAYOUT
  2
AcDbLayout
  3
AutoCAD 2000
 90
        0
280
     0
281
     0
  0
CLASS
  1
PLOTSETTINGS
  2
AcDbPlotSettings
  3
AutoCAD 2000
 90
    32768
280
     0
281
     0
  0
CLASS
  1
ACDBDICTIONARYWDFLT
  2
AcDbDictionaryWithDefault
  3
AutoCAD 2000
 90
        0
280
     0
281
     0
  0
CLASS
  1
ACDBPLACEHOLDER
  2
AcDbPlaceHolder
  3
AutoCAD 2000
 90
        0
280
     0
281
     0
  0
CLASS
  1
VBA_PROJECT
  2
AcDbVbaProject
  3
acadvba
 90
    32768
280
     0
281
     0
  0
CLASS
  1
WIPEOUT
  2
AcDbWipeout
  3
WipeOut|AutoCAD Express Tool|expresstools@autodesk.com
 90
    32895
280
     0
281
     1
  0
CLASS
  1
WIPEOUTVARIABLES
  2
AcDbWipeoutVariables
  3
WipeOut|AutoCAD Express Tool|expresstools@autodesk.com
 90
        0
280
     0
281
     0
  0
CLASS
  1
RTEXT
  2
RText
  3
RText|AutoCAD Express Tool|expresstools@autodesk.com
 90
    32768
280
     0
281
     1
  0
CLASS
  1
ARCALIGNEDTEXT
  2
AcDbArcAlignedText
  3
ATEXT|AutoCAD Express Tool|expresstools@autodesk.com
 90
    32768
280
     0
281
     1
  0
ENDSEC
  0
SECTION
  2
TABLES
  0
TABLE
  2
VPORT
  5
7
100
AcDbSymbolTable
 70
     1
  0
VPORT
  5
15
100
AcDbSymbolTableRecord
100
AcDbViewportTableRecord
  2
*ACTIVE
 70
     0
 10
0.0
 20
0.0
 11
1.0
 21
1.0
 12
6.591288
 22
4.579184
 13
0.0
 23
0.0
 14
1.0
 24
1.0
 15
0.0
 25
0.0
 16
0.0
 26
0.0
 36
1.0
 17
0.0
 27
0.0
 37
0.0
 40
9.158369
 41
0.688564
 42
50.0
 43
0.0
 44
0.0
 50
0.0
 51
0.0
 71
     0
 72
   100
 73
     1
 74
     1
 75
     0
 76
     0
 77
     0
 78
     0
281
     0
 65
     0
110
0.0
120
0.0
130
0.0
111
1.0
121
0.0
131
0.0
112
0.0
122
1.0
132
0.0
345
0
346
0
 79
     0
146
0.0
  0
ENDTAB
  0
TABLE
  2
LTYPE
  5
4
100
AcDbSymbolTable
 70
     9
  0
LTYPE
  5
11
100
AcDbSymbolTableRecord
100
AcDbLinetypeTableRecord
  2
ByBlock
 70
    64
  3

 72
    65
 73
     0
 40
0.0
  0
LTYPE
  5
12
100
AcDbSymbolTableRecord
100
AcDbLinetypeTableRecord
  2
ByLayer
 70
    64
  3

 72
    65
 73
     0
 40
0.0
  0
LTYPE
  5
13
100
AcDbSymbolTableRecord
100
AcDbLinetypeTableRecord
  2
Continuous
 70
    64
  3
Solid line
 72
    65
 73
     0
 40
0.0
  0
LTYPE
  5
25
100
AcDbSymbolTableRecord
100
AcDbLinetypeTableRecord
  2
HIDDEN
 70
    64
  3
- - - - - - - - 
 72
    65
 73
     2
 40
12.6
 49
8.4
 74
     0
 49
-4.2
 74
     0
  0
LTYPE
  5
26
100
AcDbSymbolTableRecord
100
AcDbLinetypeTableRecord
  2
DOT
 70
    64
  3
･ ･ ･ ･ ･ ･ ･ ･ 
 72
    65
 73
     2
 40
8.0
 49
6.0
 74
     0
 49
-2.0
 74
     0
  0
LTYPE
  5
27
100
AcDbSymbolTableRecord
100
AcDbLinetypeTableRecord
  2
CENTER
 70
    64
  3
- ･ - ･ - ･ - ･ 
 72
    65
 73
     4
 40
50.5
 49
30.0
 74
     0
 49
-9.0
 74
     0
 49
2.5
 74
     0
 49
-9.0
 74
     0
  0
LTYPE
  5
28
100
AcDbSymbolTableRecord
100
AcDbLinetypeTableRecord
  2
PHANTOM
 70
    64
  3
- ･･ - ･･ - ･･ - ･･ 
 72
    65
 73
     6
 40
58.0
 49
30.0
 74
     0
 49
-9.0
 74
     0
 49
2.5
 74
     0
 49
-5.0
 74
     0
 49
2.5
 74
     0
 49
-9.0
 74
     0
  0
LTYPE
  5
29
100
AcDbSymbolTableRecord
100
AcDbLinetypeTableRecord
  2
ACAD_ISO06W100
 70
    64
  3
____ ... ____ ... ____
 72
    65
 73
     8
 40
37.5
 49
24.0
 74
     0
 49
-3.0
 74
     0
 49
0.5
 74
     0
 49
-3.0
 74
     0
 49
0.5
 74
     0
 49
-3.0
 74
     0
 49
0.5
 74
     0
 49
-3.0
 74
     0
  0
LTYPE
  5
2A
100
AcDbSymbolTableRecord
100
AcDbLinetypeTableRecord
  2
ACAD_ISO14W100
 70
    64
  3
__ . . . __ . . . __ . . . 
 72
    65
 73
     8
 40
25.5
 49
12.0
 74
     0
 49
-3.0
 74
     0
 49
0.5
 74
     0
 49
-3.0
 74
     0
 49
0.5
 74
     0
 49
-3.0
 74
     0
 49
0.5
 74
     0
 49
-3.0
 74
     0
  0
ENDTAB
  0
TABLE
  2
LAYER
  5
2
100
AcDbSymbolTable
 70
    25
  0
LAYER
  5
14
100
AcDbSymbolTableRecord
100
AcDbLayerTableRecord
  2
0
 70
     0
 62
     7
  6
Continuous
290
     1
370
    -3
390
1D
  0
LAYER
  5
2B
100
AcDbSymbolTableRecord
100
AcDbLayerTableRecord
  2
1
 70
     0
 62
     7
  6
Continuous
290
     1
370
    -3
390
1D
  0
LAYER
  5
2C
100
AcDbSymbolTableRecord
100
AcDbLayerTableRecord
  2
2
 70
     0
 62
   134
  6
Continuous
290
     1
370
    -3
390
1D
  0
LAYER
  5
2D
100
AcDbSymbolTableRecord
100
AcDbLayerTableRecord
  2
3
 70
     0
 62
   214
  6
Continuous
290
     1
370
    -3
390
1D
  0
LAYER
  5
2E
100
AcDbSymbolTableRecord
100
AcDbLayerTableRecord
  2
4
 70
     0
 62
    54
  6
Continuous
290
     1
370
    -3
390
1D
  0
LAYER
  5
2F
100
AcDbSymbolTableRecord
100
AcDbLayerTableRecord
  2
5
 70
     0
 62
    94
  6
Continuous
290
     1
370
    -3
390
1D
  0
LAYER
  5
30
100
AcDbSymbolTableRecord
100
AcDbLayerTableRecord
  2
6
 70
     0
 62
    14
  6
Continuous
290
     1
370
    -3
390
1D
  0
LAYER
  5
31
100
AcDbSymbolTableRecord
100
AcDbLayerTableRecord
  2
7
 70
     0
 62
     4
  6
Continuous
290
     1
370
    -3
390
1D
  0
LAYER
  5
32
100
AcDbSymbolTableRecord
100
AcDbLayerTableRecord
  2
8
 70
     0
 62
     6
  6
Continuous
290
     1
370
    -3
390
1D
  0
LAYER
  5
33
100
AcDbSymbolTableRecord
100
AcDbLayerTableRecord
  2
9
 70
     0
 62
     2
  6
Continuous
290
     1
370
    -3
390
1D
  0
LAYER
  5
34
100
AcDbSymbolTableRecord
100
AcDbLayerTableRecord
  2
10
 70
     0
 62
     3
  6
Continuous
290
     1
370
    -3
390
1D
  0
LAYER
  5
35
100
AcDbSymbolTableRecord
100
AcDbLayerTableRecord
  2
11
 70
     0
 62
   251
  6
Continuous
290
     1
370
    -3
390
1D
  0
LAYER
  5
36
100
AcDbSymbolTableRecord
100
AcDbLayerTableRecord
  2
12
 70
     0
 62
   136
  6
Continuous
290
     1
370
    -3
390
1D
  0
LAYER
  5
37
100
AcDbSymbolTableRecord
100
AcDbLayerTableRecord
  2
13
 70
     0
 62
   216
  6
Continuous
290
     1
370
    -3
390
1D
  0
LAYER
  5
38
100
AcDbSymbolTableRecord
100
AcDbLayerTableRecord
  2
14
 70
     0
 62
    56
  6
Continuous
290
     1
370
    -3
390
1D
  0
LAYER
  5
39
100
AcDbSymbolTableRecord
100
AcDbLayerTableRecord
  2
15
 70
     0
 62
    96
  6
Continuous
290
     1
370
    -3
390
1D
  0
LAYER
  5
3A
100
AcDbSymbolTableRecord
100
AcDbLayerTableRecord
  2
16
 70
     0
 62
    16
  6
Continuous
290
     1
370
    -3
390
1D
  0
LAYER
  5
3B
100
AcDbSymbolTableRecord
100
AcDbLayerTableRecord
  2
17
 70
     0
 62
   132
  6
Continuous
290
     1
370
    -3
390
1D
  0
LAYER
  5
3C
100
AcDbSymbolTableRecord
100
AcDbLayerTableRecord
  2
18
 70
     0
 62
   212
  6
Continuous
290
     1
370
    -3
390
1D
  0
LAYER
  5
3D
100
AcDbSymbolTableRecord
100
AcDbLayerTableRecord
  2
19
 70
     0
 62
    52
  6
Continuous
290
     1
370
    -3
390
1D
  0
LAYER
  5
3E
100
AcDbSymbolTableRecord
100
AcDbLayerTableRecord
  2
20
 70
     0
 62
   250
  6
Continuous
290
     1
370
    -3
390
1D
  0
LAYER
  5
3F
100
AcDbSymbolTableRecord
100
AcDbLayerTableRecord
  2
21
 70
     0
 62
     7
  6
Continuous
290
     1
370
    -3
390
1D
  0
LAYER
  5
40
100
AcDbSymbolTableRecord
100
AcDbLayerTableRecord
  2
22
 70
     0
 62
     7
  6
Continuous
290
     1
370
    -3
390
1D
  0
LAYER
  5
41
100
AcDbSymbolTableRecord
100
AcDbLayerTableRecord
  2
23
 70
     0
 62
     7
  6
Continuous
290
     1
370
    -3
390
1D
  0
LAYER
  5
42
100
AcDbSymbolTableRecord
100
AcDbLayerTableRecord
  2
128
 70
     0
 62
     7
  6
Continuous
290
     1
370
    -3
390
1D
  0
ENDTAB
  0
TABLE
  2
STYLE
  5
3
100
AcDbSymbolTable
 70
     2
  0
STYLE
  5
17
100
AcDbSymbolTableRecord
100
AcDbTextStyleTableRecord
  2
Standard
 70
     0
 40
0.0
 41
1.0
 50
0.0
 71
     0
 42
0.0
  3
txt
  4
bigfont
  0
STYLE
  5
24
100
AcDbSymbolTableRecord
100
AcDbTextStyleTableRecord
  2
T_STANDARD
 70
    68
 40
10.0
 41
1.0
 50
0.0
 71
     0
 42
10.0
  3
txt
  4
bigfont
  0
ENDTAB
  0
TABLE
  2
VIEW
  5
5
100
AcDbSymbolTable
 70
     0
  0
ENDTAB
  0
TABLE
  2
UCS
  5
6
100
AcDbSymbolTable
 70
     0
  0
ENDTAB
  0
TABLE
  2
APPID
  5
8
100
AcDbSymbolTable
 70
     1
  0
APPID
  5
16
100
AcDbSymbolTableRecord
100
AcDbRegAppTableRecord
  2
ACAD
 70
     0
  0
ENDTAB
  0
TABLE
  2
DIMSTYLE
  5
9
100
AcDbSymbolTable
 70
     1
100
AcDbDimStyleTable
 71
     0
  0
DIMSTYLE
105
18
100
AcDbSymbolTableRecord
100
AcDbDimStyleTableRecord
  2
Standard
 70
     0
  3

  4

 40
1.0
 41
0.18
 42
0.0625
 43
0.38
 44
0.18
 45
0.0
 46
0.0
 47
0.0
 48
0.0
 71
     0
 72
     0
 73
     1
 74
     1
 75
     0
 76
     0
 77
     0
 78
     0
 79
     0
140
0.18
141
0.09
142
0.0
143
25.4
144
1.0
145
0.0
146
1.0
147
0.09
148
0.0
170
     0
171
     2
172
     0
173
     0
174
     0
175
     0
176
     0
177
     0
178
     0
179
     0
271
     4
272
     4
273
     2
274
     2
275
     0
276
     0
277
     2
278
    46
279
     0
280
     0
281
     0
282
     0
283
     1
284
     0
285
     0
286
     0
288
     0
340
17
341
0
342
0
343
0
344
0
371
    -2
372
    -2
  0
ENDTAB
  0
TABLE
  2
BLOCK_RECORD
  5
1
100
AcDbSymbolTable
 70
     6
  0
BLOCK_RECORD
  5
A
100
AcDbSymbolTableRecord
100
AcDbBlockTableRecord
  2
*MODEL_SPACE
340
20
  0
BLOCK_RECORD
  5
B
100
AcDbSymbolTableRecord
100
AcDbBlockTableRecord
  2
*PAPER_SPACE
340
21
  0
BLOCK_RECORD
  5
43
100
AcDbSymbolTableRecord
100
AcDbBlockTableRecord
  2
*G0
340
0
102
{BLKREFS
331
46
102
}
  0
BLOCK_RECORD
  5
87
100
AcDbSymbolTableRecord
100
AcDbBlockTableRecord
  2
*D1
340
0
  0
BLOCK_RECORD
  5
93
100
AcDbSymbolTableRecord
100
AcDbBlockTableRecord
  2
*D2
340
0
  0
BLOCK_RECORD
  5
9F
100
AcDbSymbolTableRecord
100
AcDbBlockTableRecord
  2
*D3
340
0
  0
BLOCK_RECORD
  5
AB
100
AcDbSymbolTableRecord
100
AcDbBlockTableRecord
  2
*G4
340
0
102
{BLKREFS
331
F1
102
}
  0
BLOCK_RECORD
  5
F2
100
AcDbSymbolTableRecord
100
AcDbBlockTableRecord
  2
*G5
340
0
102
{BLKREFS
331
138
102
}
  0
ENDTAB
  0
ENDSEC
  0
SECTION
  2
BLOCKS
  0
BLOCK
  5
D
100
AcDbEntity
  8
0
100
AcDbBlockBegin
  2
*MODEL_SPACE
 70
     0
 10
0.0
 20
0.0
 30
0.0
  3
*MODEL_SPACE
  1

  0
ENDBLK
  5
E
100
AcDbEntity
  8
0
100
AcDbBlockEnd
  0
BLOCK
  5
F
100
AcDbEntity
 67
     1
  8
0
100
AcDbBlockBegin
  2
*PAPER_SPACE
 70
     0
 10
0.0
 20
0.0
 30
0.0
  3
*PAPER_SPACE
  1

  0
ENDBLK
  5
10
100
AcDbEntity
 67
     1
  8
0
100
AcDbBlockEnd
  0
BLOCK
  5
44
100
AcDbEntity
  8
0
370
     9
  6
Continuous
 62
     7
100
AcDbBlockBegin
  2
*G0
 70
     0
 10
0.0
 20
0.0
 30
0.0
  3
*G0
  1

  0
ENDBLK
  5
45
100
AcDbEntity
  8
0
100
AcDbBlockEnd
  0
BLOCK
  5
88
100
AcDbEntity
  8
1
370
     9
  6
Continuous
 62
     7
100
AcDbBlockBegin
  2
*D1
 70
     0
 10
0.0
 20
0.0
 30
0.0
  3
*D1
  1

  0
LINE
  5
89
100
AcDbEntity
  8
1
370
     9
  6
Continuous
 62
     7
100
AcDbLine
 10
199.144262
 20
63.210738
 30
0.0
 11
199.144262
 21
84.110738
 31
0.0
  0
LINE
  5
8A
100
AcDbEntity
  8
1
370
     9
  6
Continuous
 62
     7
100
AcDbLine
 10
201.144262
 20
63.210738
 30
0.0
 11
191.644262
 21
63.210738
 31
0.0
  0
LINE
  5
8B
100
AcDbEntity
  8
1
370
     9
  6
Continuous
 62
     7
100
AcDbLine
 10
201.144262
 20
84.110738
 30
0.0
 11
191.644262
 21
84.110738
 31
0.0
  0
LINE
  5
8C
100
AcDbEntity
  8
1
370
     9
  6
Continuous
 62
     7
100
AcDbLine
 10
199.144262
 20
63.210738
 30
0.0
 11
198.108986
 21
67.074442
 31
0.0
  0
LINE
  5
8D
100
AcDbEntity
  8
1
370
     9
  6
Continuous
 62
     7
100
AcDbLine
 10
199.144262
 20
63.210738
 30
0.0
 11
200.179538
 21
67.074442
 31
0.0
  0
LINE
  5
8E
100
AcDbEntity
  8
1
370
     9
  6
Continuous
 62
     7
100
AcDbLine
 10
199.144262
 20
84.110738
 30
0.0
 11
200.179538
 21
80.247035
 31
0.0
  0
LINE
  5
8F
100
AcDbEntity
  8
1
370
     9
  6
Continuous
 62
     7
100
AcDbLine
 10
199.144262
 20
84.110738
 30
0.0
 11
198.108986
 21
80.247035
 31
0.0
  0
TEXT
  5
90
100
AcDbEntity
  8
1
370
     9
  6
Continuous
 62
     7
100
AcDbText
 10
199.144262
 20
70.660738
 30
0.0
 40
3.0
  1
20.9
 50
90.0
 41
0.5
 11
199.144262
 21
70.660738
 31
0.0
100
AcDbText
 73
     1
  0
ENDBLK
  5
91
100
AcDbEntity
  8
1
370
     9
  6
Continuous
 62
     7
100
AcDbBlockEnd
  0
BLOCK
  5
94
100
AcDbEntity
  8
1
370
     9
  6
Continuous
 62
     7
100
AcDbBlockBegin
  2
*D2
 70
     0
 10
0.0
 20
0.0
 30
0.0
  3
*D2
  1

  0
LINE
  5
95
100
AcDbEntity
  8
1
370
     9
  6
Continuous
 62
     7
100
AcDbLine
 10
108.644262
 20
55.510738
 30
0.0
 11
189.644262
 21
55.510738
 31
0.0
  0
LINE
  5
96
100
AcDbEntity
  8
1
370
     9
  6
Continuous
 62
     7
100
AcDbLine
 10
108.644262
 20
53.510738
 30
0.0
 11
108.644262
 21
61.010738
 31
0.0
  0
LINE
  5
97
100
AcDbEntity
  8
1
370
     9
  6
Continuous
 62
     7
100
AcDbLine
 10
189.644262
 20
53.510738
 30
0.0
 11
189.644262
 21
61.010738
 31
0.0
  0
LINE
  5
98
100
AcDbEntity
  8
1
370
     9
  6
Continuous
 62
     7
100
AcDbLine
 10
108.644262
 20
55.510738
 30
0.0
 11
112.507965
 21
56.546014
 31
0.0
  0
LINE
  5
99
100
AcDbEntity
  8
1
370
     9
  6
Continuous
 62
     7
100
AcDbLine
 10
108.644262
 20
55.510738
 30
0.0
 11
112.507965
 21
54.475462
 31
0.0
  0
LINE
  5
9A
100
AcDbEntity
  8
1
370
     9
  6
Continuous
 62
     7
100
AcDbLine
 10
189.644262
 20
55.510738
 30
0.0
 11
185.780559
 21
54.475462
 31
0.0
  0
LINE
  5
9B
100
AcDbEntity
  8
1
370
     9
  6
Continuous
 62
     7
100
AcDbLine
 10
189.644262
 20
55.510738
 30
0.0
 11
185.780559
 21
56.546014
 31
0.0
  0
TEXT
  5
9C
100
AcDbEntity
  8
1
370
     9
  6
Continuous
 62
     7
100
AcDbText
 10
147.644262
 20
55.510738
 30
0.0
 40
3.0
  1
81
 41
0.5
 11
147.644262
 21
55.510738
 31
0.0
100
AcDbText
 73
     1
  0
ENDBLK
  5
9D
100
AcDbEntity
  8
1
370
     9
  6
Continuous
 62
     7
100
AcDbBlockEnd
  0
BLOCK
  5
A0
100
AcDbEntity
  8
1
370
     9
  6
Continuous
 62
     7
100
AcDbBlockBegin
  2
*D3
 70
     0
 10
0.0
 20
0.0
 30
0.0
  3
*D3
  1

  0
LINE
  5
A1
100
AcDbEntity
  8
1
370
     9
  6
Continuous
 62
     7
100
AcDbLine
 10
199.144262
 20
145.510738
 30
0.0
 11
199.144262
 21
120.510738
 31
0.0
  0
LINE
  5
A2
100
AcDbEntity
  8
1
370
     9
  6
Continuous
 62
     7
100
AcDbLine
 10
201.144262
 20
145.510738
 30
0.0
 11
191.644262
 21
145.510738
 31
0.0
  0
LINE
  5
A3
100
AcDbEntity
  8
1
370
     9
  6
Continuous
 62
     7
100
AcDbLine
 10
201.144262
 20
120.510738
 30
0.0
 11
191.644262
 21
120.510738
 31
0.0
  0
LINE
  5
A4
100
AcDbEntity
  8
1
370
     9
  6
Continuous
 62
     7
100
AcDbLine
 10
199.144262
 20
145.510738
 30
0.0
 11
200.179538
 21
141.647035
 31
0.0
  0
LINE
  5
A5
100
AcDbEntity
  8
1
370
     9
  6
Continuous
 62
     7
100
AcDbLine
 10
199.144262
 20
145.510738
 30
0.0
 11
198.108986
 21
141.647035
 31
0.0
  0
LINE
  5
A6
100
AcDbEntity
  8
1
370
     9
  6
Continuous
 62
     7
100
AcDbLine
 10
199.144262
 20
120.510738
 30
0.0
 11
198.108986
 21
124.374442
 31
0.0
  0
LINE
  5
A7
100
AcDbEntity
  8
1
370
     9
  6
Continuous
 62
     7
100
AcDbLine
 10
199.144262
 20
120.510738
 30
0.0
 11
200.179538
 21
124.374442
 31
0.0
  0
TEXT
  5
A8
100
AcDbEntity
  8
1
370
     9
  6
Continuous
 62
     7
100
AcDbText
 10
199.144262
 20
131.510738
 30
0.0
 40
3.0
  1
25
 50
90.0
 41
0.5
 11
199.144262
 21
131.510738
 31
0.0
100
AcDbText
 73
     1
  0
ENDBLK
  5
A9
100
AcDbEntity
  8
1
370
     9
  6
Continuous
 62
     7
100
AcDbBlockEnd
  0
BLOCK
  5
AC
100
AcDbEntity
  8
0
370
     9
  6
Continuous
 62
     7
100
AcDbBlockBegin
  2
*G4
 70
     0
 10
0.0
 20
0.0
 30
0.0
  3
*G4
  1

  0
LINE
  5
AD
100
AcDbEntity
  8
22
370
    30
  6
Continuous
 62
     7
100
AcDbLine
 10
108.644262
 20
123.580738
 30
0.0
 11
109.644262
 21
123.580738
 31
0.0
  0
LINE
  5
AE
100
AcDbEntity
  8
22
370
    30
  6
Continuous
 62
     7
100
AcDbLine
 10
108.644262
 20
122.080738
 30
0.0
 11
122.644262
 21
122.080738
 31
0.0
  0
LINE
  5
AF
100
AcDbEntity
  8
22
370
    30
  6
Continuous
 62
     7
100
AcDbLine
 10
122.644262
 20
123.580738
 30
0.0
 11
121.644262
 21
123.580738
 31
0.0
  0
LINE
  5
B0
100
AcDbEntity
  8
22
370
    30
  6
Continuous
 62
     7
100
AcDbLine
 10
115.144262
 20
126.890738
 30
0.0
 11
115.144262
 21
125.890738
 31
0.0
  0
LINE
  5
B1
100
AcDbEntity
  8
22
370
    30
  6
Continuous
 62
     7
100
AcDbLine
 10
115.144262
 20
125.890738
 30
0.0
 11
114.144262
 21
125.890738
 31
0.0
  0
LINE
  5
B2
100
AcDbEntity
  8
22
370
    30
  6
Continuous
 62
     7
100
AcDbLine
 10
114.144262
 20
124.890738
 30
0.0
 11
115.144262
 21
124.890738
 31
0.0
  0
LINE
  5
B3
100
AcDbEntity
  8
22
370
    30
  6
Continuous
 62
     7
100
AcDbLine
 10
115.144262
 20
124.890738
 30
0.0
 11
115.144262
 21
123.890738
 31
0.0
  0
LINE
  5
B4
100
AcDbEntity
  8
22
370
    30
  6
Continuous
 62
     7
100
AcDbLine
 10
116.144262
 20
126.890738
 30
0.0
 11
116.144262
 21
125.890738
 31
0.0
  0
LINE
  5
B5
100
AcDbEntity
  8
22
370
    30
  6
Continuous
 62
     7
100
AcDbLine
 10
116.144262
 20
125.890738
 30
0.0
 11
117.144262
 21
125.890738
 31
0.0
  0
LINE
  5
B6
100
AcDbEntity
  8
22
370
    30
  6
Continuous
 62
     7
100
AcDbLine
 10
117.144262
 20
124.890738
 30
0.0
 11
116.144262
 21
124.890738
 31
0.0
  0
LINE
  5
B7
100
AcDbEntity
  8
22
370
    30
  6
Continuous
 62
     7
100
AcDbLine
 10
116.144262
 20
124.890738
 30
0.0
 11
116.144262
 21
123.890738
 31
0.0
  0
CIRCLE
  5
B8
100
AcDbEntity
  8
22
370
    30
  6
Continuous
 62
     7
100
AcDbCircle
 10
115.644262
 20
125.390738
 30
0.0
 40
2.5
  0
LINE
  5
B9
100
AcDbEntity
  8
22
370
    30
  6
Continuous
 62
     7
100
AcDbLine
 10
108.644262
 20
127.200738
 30
0.0
 11
109.644262
 21
127.200738
 31
0.0
  0
LINE
  5
BA
100
AcDbEntity
  8
22
370
    30
  6
Continuous
 62
     7
100
AcDbLine
 10
108.644262
 20
138.820738
 30
0.0
 11
109.644262
 21
138.820738
 31
0.0
  0
LINE
  5
BB
100
AcDbEntity
  8
22
370
    30
  6
Continuous
 62
     7
100
AcDbLine
 10
108.644262
 20
137.320738
 30
0.0
 11
122.644262
 21
137.320738
 31
0.0
  0
LINE
  5
BC
100
AcDbEntity
  8
22
370
    30
  6
Continuous
 62
     7
100
AcDbLine
 10
108.644262
 20
128.700738
 30
0.0
 11
122.644262
 21
128.700738
 31
0.0
  0
LINE
  5
BD
100
AcDbEntity
  8
22
370
    30
  6
Continuous
 62
     7
100
AcDbLine
 10
108.644262
 20
138.820738
 30
0.0
 11
108.644262
 21
134.820738
 31
0.0
  0
LINE
  5
BE
100
AcDbEntity
  8
22
370
    30
  6
Continuous
 62
     7
100
AcDbLine
 10
122.644262
 20
127.200738
 30
0.0
 11
121.644262
 21
127.200738
 31
0.0
  0
LINE
  5
BF
100
AcDbEntity
  8
22
370
    30
  6
Continuous
 62
     7
100
AcDbLine
 10
122.644262
 20
138.820738
 30
0.0
 11
121.644262
 21
138.820738
 31
0.0
  0
LINE
  5
C0
100
AcDbEntity
  8
22
370
    30
  6
Continuous
 62
     7
100
AcDbLine
 10
122.644262
 20
138.820738
 30
0.0
 11
122.644262
 21
134.820738
 31
0.0
  0
LINE
  5
C1
100
AcDbEntity
  8
22
370
    30
  6
Continuous
 62
     7
100
AcDbLine
 10
109.644262
 20
128.700738
 30
0.0
 11
109.644262
 21
122.080738
 31
0.0
  0
LINE
  5
C2
100
AcDbEntity
  8
22
370
    30
  6
Continuous
 62
     7
100
AcDbLine
 10
111.144262
 20
128.700738
 30
0.0
 11
111.144262
 21
122.080738
 31
0.0
  0
LINE
  5
C3
100
AcDbEntity
  8
22
370
    30
  6
Continuous
 62
     7
100
AcDbLine
 10
120.144262
 20
128.700738
 30
0.0
 11
120.144262
 21
122.080738
 31
0.0
  0
LINE
  5
C4
100
AcDbEntity
  8
22
370
    30
  6
Continuous
 62
     7
100
AcDbLine
 10
121.644262
 20
128.700738
 30
0.0
 11
121.644262
 21
122.080738
 31
0.0
  0
LINE
  5
C5
100
AcDbEntity
  8
22
370
    30
  6
Continuous
 62
     7
100
AcDbLine
 10
115.144262
 20
142.130738
 30
0.0
 11
115.144262
 21
141.130738
 31
0.0
  0
LINE
  5
C6
100
AcDbEntity
  8
22
370
    30
  6
Continuous
 62
     7
100
AcDbLine
 10
115.144262
 20
141.130738
 30
0.0
 11
114.144262
 21
141.130738
 31
0.0
  0
LINE
  5
C7
100
AcDbEntity
  8
22
370
    30
  6
Continuous
 62
     7
100
AcDbLine
 10
114.144262
 20
140.130738
 30
0.0
 11
115.144262
 21
140.130738
 31
0.0
  0
LINE
  5
C8
100
AcDbEntity
  8
22
370
    30
  6
Continuous
 62
     7
100
AcDbLine
 10
115.144262
 20
140.130738
 30
0.0
 11
115.144262
 21
139.130738
 31
0.0
  0
LINE
  5
C9
100
AcDbEntity
  8
22
370
    30
  6
Continuous
 62
     7
100
AcDbLine
 10
116.144262
 20
142.130738
 30
0.0
 11
116.144262
 21
141.130738
 31
0.0
  0
LINE
  5
CA
100
AcDbEntity
  8
22
370
    30
  6
Continuous
 62
     7
100
AcDbLine
 10
116.144262
 20
141.130738
 30
0.0
 11
117.144262
 21
141.130738
 31
0.0
  0
LINE
  5
CB
100
AcDbEntity
  8
22
370
    30
  6
Continuous
 62
     7
100
AcDbLine
 10
117.144262
 20
140.130738
 30
0.0
 11
116.144262
 21
140.130738
 31
0.0
  0
LINE
  5
CC
100
AcDbEntity
  8
22
370
    30
  6
Continuous
 62
     7
100
AcDbLine
 10
116.144262
 20
140.130738
 30
0.0
 11
116.144262
 21
139.130738
 31
0.0
  0
CIRCLE
  5
CD
100
AcDbEntity
  8
22
370
    30
  6
Continuous
 62
     7
100
AcDbCircle
 10
115.644262
 20
140.630738
 30
0.0
 40
2.5
  0
LINE
  5
CE
100
AcDbEntity
  8
22
370
    30
  6
Continuous
 62
     7
100
AcDbLine
 10
108.644262
 20
142.440738
 30
0.0
 11
109.644262
 21
142.440738
 31
0.0
  0
LINE
  5
CF
100
AcDbEntity
  8
22
370
    30
  6
Continuous
 62
     7
100
AcDbLine
 10
108.644262
 20
145.190738
 30
0.0
 11
108.644262
 21
142.440738
 31
0.0
  0
LINE
  5
D0
100
AcDbEntity
  8
22
370
    30
  6
Continuous
 62
     7
100
AcDbLine
 10
122.644262
 20
142.440738
 30
0.0
 11
121.644262
 21
142.440738
 31
0.0
  0
LINE
  5
D1
100
AcDbEntity
  8
22
370
    30
  6
Continuous
 62
     7
100
AcDbLine
 10
122.644262
 20
145.190738
 30
0.0
 11
122.644262
 21
142.440738
 31
0.0
  0
LINE
  5
D2
100
AcDbEntity
  8
22
370
    30
  6
Continuous
 62
     7
100
AcDbLine
 10
109.644262
 20
143.940738
 30
0.0
 11
109.644262
 21
137.320738
 31
0.0
  0
LINE
  5
D3
100
AcDbEntity
  8
22
370
    30
  6
Continuous
 62
     7
100
AcDbLine
 10
111.144262
 20
143.940738
 30
0.0
 11
111.144262
 21
137.320738
 31
0.0
  0
LINE
  5
D4
100
AcDbEntity
  8
22
370
    30
  6
Continuous
 62
     7
100
AcDbLine
 10
120.144262
 20
143.940738
 30
0.0
 11
120.144262
 21
137.320738
 31
0.0
  0
LINE
  5
D5
100
AcDbEntity
  8
22
370
    30
  6
Continuous
 62
     7
100
AcDbLine
 10
121.644262
 20
143.940738
 30
0.0
 11
121.644262
 21
137.320738
 31
0.0
  0
LINE
  5
D6
100
AcDbEntity
  8
22
370
    30
  6
Continuous
 62
     7
100
AcDbLine
 10
108.644262
 20
143.940738
 30
0.0
 11
122.644262
 21
143.940738
 31
0.0
  0
LINE
  5
D7
100
AcDbEntity
  8
22
370
    30
  6
Continuous
 62
     7
100
AcDbLine
 10
108.644262
 20
145.190738
 30
0.0
 11
122.644262
 21
145.190738
 31
0.0
  0
LINE
  5
D8
100
AcDbEntity
  8
22
370
    30
  6
Continuous
 62
     7
100
AcDbLine
 10
108.644262
 20
123.580738
 30
0.0
 11
108.644262
 21
120.830738
 31
0.0
  0
LINE
  5
D9
100
AcDbEntity
  8
22
370
    30
  6
Continuous
 62
     7
100
AcDbLine
 10
122.644262
 20
123.580738
 30
0.0
 11
122.644262
 21
120.830738
 31
0.0
  0
LINE
  5
DA
100
AcDbEntity
  8
22
370
    30
  6
Continuous
 62
     7
100
AcDbLine
 10
122.644262
 20
120.830738
 30
0.0
 11
108.644262
 21
120.830738
 31
0.0
  0
LINE
  5
DB
100
AcDbEntity
  8
22
370
    30
  6
Continuous
 62
     7
100
AcDbLine
 10
115.144262
 20
134.510738
 30
0.0
 11
115.144262
 21
133.510738
 31
0.0
  0
LINE
  5
DC
100
AcDbEntity
  8
22
370
    30
  6
Continuous
 62
     7
100
AcDbLine
 10
115.144262
 20
133.510738
 30
0.0
 11
114.144262
 21
133.510738
 31
0.0
  0
LINE
  5
DD
100
AcDbEntity
  8
22
370
    30
  6
Continuous
 62
     7
100
AcDbLine
 10
114.144262
 20
132.510738
 30
0.0
 11
115.144262
 21
132.510738
 31
0.0
  0
LINE
  5
DE
100
AcDbEntity
  8
22
370
    30
  6
Continuous
 62
     7
100
AcDbLine
 10
115.144262
 20
132.510738
 30
0.0
 11
115.144262
 21
131.510738
 31
0.0
  0
LINE
  5
DF
100
AcDbEntity
  8
22
370
    30
  6
Continuous
 62
     7
100
AcDbLine
 10
116.144262
 20
134.510738
 30
0.0
 11
116.144262
 21
133.510738
 31
0.0
  0
LINE
  5
E0
100
AcDbEntity
  8
22
370
    30
  6
Continuous
 62
     7
100
AcDbLine
 10
116.144262
 20
133.510738
 30
0.0
 11
117.144262
 21
133.510738
 31
0.0
  0
LINE
  5
E1
100
AcDbEntity
  8
22
370
    30
  6
Continuous
 62
     7
100
AcDbLine
 10
117.144262
 20
132.510738
 30
0.0
 11
116.144262
 21
132.510738
 31
0.0
  0
LINE
  5
E2
100
AcDbEntity
  8
22
370
    30
  6
Continuous
 62
     7
100
AcDbLine
 10
116.144262
 20
132.510738
 30
0.0
 11
116.144262
 21
131.510738
 31
0.0
  0
CIRCLE
  5
E3
100
AcDbEntity
  8
22
370
    30
  6
Continuous
 62
     7
100
AcDbCircle
 10
115.644262
 20
133.010738
 30
0.0
 40
2.5
  0
LINE
  5
E4
100
AcDbEntity
  8
22
370
    30
  6
Continuous
 62
     7
100
AcDbLine
 10
109.644262
 20
136.320738
 30
0.0
 11
109.644262
 21
129.700738
 31
0.0
  0
LINE
  5
E5
100
AcDbEntity
  8
22
370
    30
  6
Continuous
 62
     7
100
AcDbLine
 10
111.144262
 20
136.320738
 30
0.0
 11
111.144262
 21
129.700738
 31
0.0
  0
LINE
  5
E6
100
AcDbEntity
  8
22
370
    30
  6
Continuous
 62
     7
100
AcDbLine
 10
120.144262
 20
136.320738
 30
0.0
 11
120.144262
 21
129.700738
 31
0.0
  0
LINE
  5
E7
100
AcDbEntity
  8
22
370
    30
  6
Continuous
 62
     7
100
AcDbLine
 10
121.644262
 20
136.320738
 30
0.0
 11
121.644262
 21
129.700738
 31
0.0
  0
LINE
  5
E8
100
AcDbEntity
  8
22
370
    30
  6
Continuous
 62
     7
100
AcDbLine
 10
108.644262
 20
136.320738
 30
0.0
 11
122.644262
 21
136.320738
 31
0.0
  0
LINE
  5
E9
100
AcDbEntity
  8
22
370
    30
  6
Continuous
 62
     7
100
AcDbLine
 10
108.644262
 20
129.700738
 30
0.0
 11
122.644262
 21
129.700738
 31
0.0
  0
LINE
  5
EA
100
AcDbEntity
  8
22
370
    30
  6
Continuous
 62
     7
100
AcDbLine
 10
108.644262
 20
134.820738
 30
0.0
 11
109.644262
 21
134.820738
 31
0.0
  0
LINE
  5
EB
100
AcDbEntity
  8
22
370
    30
  6
Continuous
 62
     7
100
AcDbLine
 10
122.644262
 20
134.820738
 30
0.0
 11
121.644262
 21
134.820738
 31
0.0
  0
LINE
  5
EC
100
AcDbEntity
  8
22
370
    30
  6
Continuous
 62
     7
100
AcDbLine
 10
108.644262
 20
131.200738
 30
0.0
 11
109.644262
 21
131.200738
 31
0.0
  0
LINE
  5
ED
100
AcDbEntity
  8
22
370
    30
  6
Continuous
 62
     7
100
AcDbLine
 10
122.644262
 20
131.200738
 30
0.0
 11
121.644262
 21
131.200738
 31
0.0
  0
LINE
  5
EE
100
AcDbEntity
  8
22
370
    30
  6
Continuous
 62
     7
100
AcDbLine
 10
108.644262
 20
131.200738
 30
0.0
 11
108.644262
 21
127.200738
 31
0.0
  0
LINE
  5
EF
100
AcDbEntity
  8
22
370
    30
  6
Continuous
 62
     7
100
AcDbLine
 10
122.644262
 20
131.200738
 30
0.0
 11
122.644262
 21
127.200738
 31
0.0
  0
ENDBLK
  5
F0
100
AcDbEntity
  8
0
100
AcDbBlockEnd
  0
BLOCK
  5
F3
100
AcDbEntity
  8
0
370
     9
  6
Continuous
 62
     7
100
AcDbBlockBegin
  2
*G5
 70
     0
 10
0.0
 20
0.0
 30
0.0
  3
*G5
  1

  0
LINE
  5
F4
100
AcDbEntity
  8
22
370
    30
  6
Continuous
 62
     7
100
AcDbLine
 10
175.644262
 20
123.580738
 30
0.0
 11
176.644262
 21
123.580738
 31
0.0
  0
LINE
  5
F5
100
AcDbEntity
  8
22
370
    30
  6
Continuous
 62
     7
100
AcDbLine
 10
175.644262
 20
122.080738
 30
0.0
 11
189.644262
 21
122.080738
 31
0.0
  0
LINE
  5
F6
100
AcDbEntity
  8
22
370
    30
  6
Continuous
 62
     7
100
AcDbLine
 10
189.644262
 20
123.580738
 30
0.0
 11
188.644262
 21
123.580738
 31
0.0
  0
LINE
  5
F7
100
AcDbEntity
  8
22
370
    30
  6
Continuous
 62
     7
100
AcDbLine
 10
182.144262
 20
126.890738
 30
0.0
 11
182.144262
 21
125.890738
 31
0.0
  0
LINE
  5
F8
100
AcDbEntity
  8
22
370
    30
  6
Continuous
 62
     7
100
AcDbLine
 10
182.144262
 20
125.890738
 30
0.0
 11
181.144262
 21
125.890738
 31
0.0
  0
LINE
  5
F9
100
AcDbEntity
  8
22
370
    30
  6
Continuous
 62
     7
100
AcDbLine
 10
181.144262
 20
124.890738
 30
0.0
 11
182.144262
 21
124.890738
 31
0.0
  0
LINE
  5
FA
100
AcDbEntity
  8
22
370
    30
  6
Continuous
 62
     7
100
AcDbLine
 10
182.144262
 20
124.890738
 30
0.0
 11
182.144262
 21
123.890738
 31
0.0
  0
LINE
  5
FB
100
AcDbEntity
  8
22
370
    30
  6
Continuous
 62
     7
100
AcDbLine
 10
183.144262
 20
126.890738
 30
0.0
 11
183.144262
 21
125.890738
 31
0.0
  0
LINE
  5
FC
100
AcDbEntity
  8
22
370
    30
  6
Continuous
 62
     7
100
AcDbLine
 10
183.144262
 20
125.890738
 30
0.0
 11
184.144262
 21
125.890738
 31
0.0
  0
LINE
  5
FD
100
AcDbEntity
  8
22
370
    30
  6
Continuous
 62
     7
100
AcDbLine
 10
184.144262
 20
124.890738
 30
0.0
 11
183.144262
 21
124.890738
 31
0.0
  0
LINE
  5
FE
100
AcDbEntity
  8
22
370
    30
  6
Continuous
 62
     7
100
AcDbLine
 10
183.144262
 20
124.890738
 30
0.0
 11
183.144262
 21
123.890738
 31
0.0
  0
CIRCLE
  5
FF
100
AcDbEntity
  8
22
370
    30
  6
Continuous
 62
     7
100
AcDbCircle
 10
182.644262
 20
125.390738
 30
0.0
 40
2.5
  0
LINE
  5
100
100
AcDbEntity
  8
22
370
    30
  6
Continuous
 62
     7
100
AcDbLine
 10
175.644262
 20
127.200738
 30
0.0
 11
176.644262
 21
127.200738
 31
0.0
  0
LINE
  5
101
100
AcDbEntity
  8
22
370
    30
  6
Continuous
 62
     7
100
AcDbLine
 10
175.644262
 20
138.820738
 30
0.0
 11
176.644262
 21
138.820738
 31
0.0
  0
LINE
  5
102
100
AcDbEntity
  8
22
370
    30
  6
Continuous
 62
     7
100
AcDbLine
 10
175.644262
 20
137.320738
 30
0.0
 11
189.644262
 21
137.320738
 31
0.0
  0
LINE
  5
103
100
AcDbEntity
  8
22
370
    30
  6
Continuous
 62
     7
100
AcDbLine
 10
175.644262
 20
128.700738
 30
0.0
 11
189.644262
 21
128.700738
 31
0.0
  0
LINE
  5
104
100
AcDbEntity
  8
22
370
    30
  6
Continuous
 62
     7
100
AcDbLine
 10
175.644262
 20
138.820738
 30
0.0
 11
175.644262
 21
134.820738
 31
0.0
  0
LINE
  5
105
100
AcDbEntity
  8
22
370
    30
  6
Continuous
 62
     7
100
AcDbLine
 10
189.644262
 20
127.200738
 30
0.0
 11
188.644262
 21
127.200738
 31
0.0
  0
LINE
  5
106
100
AcDbEntity
  8
22
370
    30
  6
Continuous
 62
     7
100
AcDbLine
 10
189.644262
 20
138.820738
 30
0.0
 11
188.644262
 21
138.820738
 31
0.0
  0
LINE
  5
107
100
AcDbEntity
  8
22
370
    30
  6
Continuous
 62
     7
100
AcDbLine
 10
189.644262
 20
138.820738
 30
0.0
 11
189.644262
 21
134.820738
 31
0.0
  0
LINE
  5
108
100
AcDbEntity
  8
22
370
    30
  6
Continuous
 62
     7
100
AcDbLine
 10
176.644262
 20
128.700738
 30
0.0
 11
176.644262
 21
122.080738
 31
0.0
  0
LINE
  5
109
100
AcDbEntity
  8
22
370
    30
  6
Continuous
 62
     7
100
AcDbLine
 10
178.144262
 20
128.700738
 30
0.0
 11
178.144262
 21
122.080738
 31
0.0
  0
LINE
  5
10A
100
AcDbEntity
  8
22
370
    30
  6
Continuous
 62
     7
100
AcDbLine
 10
187.144262
 20
128.700738
 30
0.0
 11
187.144262
 21
122.080738
 31
0.0
  0
LINE
  5
10B
100
AcDbEntity
  8
22
370
    30
  6
Continuous
 62
     7
100
AcDbLine
 10
188.644262
 20
128.700738
 30
0.0
 11
188.644262
 21
122.080738
 31
0.0
  0
LINE
  5
10C
100
AcDbEntity
  8
22
370
    30
  6
Continuous
 62
     7
100
AcDbLine
 10
182.144262
 20
142.130738
 30
0.0
 11
182.144262
 21
141.130738
 31
0.0
  0
LINE
  5
10D
100
AcDbEntity
  8
22
370
    30
  6
Continuous
 62
     7
100
AcDbLine
 10
182.144262
 20
141.130738
 30
0.0
 11
181.144262
 21
141.130738
 31
0.0
  0
LINE
  5
10E
100
AcDbEntity
  8
22
370
    30
  6
Continuous
 62
     7
100
AcDbLine
 10
181.144262
 20
140.130738
 30
0.0
 11
182.144262
 21
140.130738
 31
0.0
  0
LINE
  5
10F
100
AcDbEntity
  8
22
370
    30
  6
Continuous
 62
     7
100
AcDbLine
 10
182.144262
 20
140.130738
 30
0.0
 11
182.144262
 21
139.130738
 31
0.0
  0
LINE
  5
110
100
AcDbEntity
  8
22
370
    30
  6
Continuous
 62
     7
100
AcDbLine
 10
183.144262
 20
142.130738
 30
0.0
 11
183.144262
 21
141.130738
 31
0.0
  0
LINE
  5
111
100
AcDbEntity
  8
22
370
    30
  6
Continuous
 62
     7
100
AcDbLine
 10
183.144262
 20
141.130738
 30
0.0
 11
184.144262
 21
141.130738
 31
0.0
  0
LINE
  5
112
100
AcDbEntity
  8
22
370
    30
  6
Continuous
 62
     7
100
AcDbLine
 10
184.144262
 20
140.130738
 30
0.0
 11
183.144262
 21
140.130738
 31
0.0
  0
LINE
  5
113
100
AcDbEntity
  8
22
370
    30
  6
Continuous
 62
     7
100
AcDbLine
 10
183.144262
 20
140.130738
 30
0.0
 11
183.144262
 21
139.130738
 31
0.0
  0
CIRCLE
  5
114
100
AcDbEntity
  8
22
370
    30
  6
Continuous
 62
     7
100
AcDbCircle
 10
182.644262
 20
140.630738
 30
0.0
 40
2.5
  0
LINE
  5
115
100
AcDbEntity
  8
22
370
    30
  6
Continuous
 62
     7
100
AcDbLine
 10
175.644262
 20
142.440738
 30
0.0
 11
176.644262
 21
142.440738
 31
0.0
  0
LINE
  5
116
100
AcDbEntity
  8
22
370
    30
  6
Continuous
 62
     7
100
AcDbLine
 10
175.644262
 20
145.190738
 30
0.0
 11
175.644262
 21
142.440738
 31
0.0
  0
LINE
  5
117
100
AcDbEntity
  8
22
370
    30
  6
Continuous
 62
     7
100
AcDbLine
 10
189.644262
 20
142.440738
 30
0.0
 11
188.644262
 21
142.440738
 31
0.0
  0
LINE
  5
118
100
AcDbEntity
  8
22
370
    30
  6
Continuous
 62
     7
100
AcDbLine
 10
189.644262
 20
145.190738
 30
0.0
 11
189.644262
 21
142.440738
 31
0.0
  0
LINE
  5
119
100
AcDbEntity
  8
22
370
    30
  6
Continuous
 62
     7
100
AcDbLine
 10
176.644262
 20
143.940738
 30
0.0
 11
176.644262
 21
137.320738
 31
0.0
  0
LINE
  5
11A
100
AcDbEntity
  8
22
370
    30
  6
Continuous
 62
     7
100
AcDbLine
 10
178.144262
 20
143.940738
 30
0.0
 11
178.144262
 21
137.320738
 31
0.0
  0
LINE
  5
11B
100
AcDbEntity
  8
22
370
    30
  6
Continuous
 62
     7
100
AcDbLine
 10
187.144262
 20
143.940738
 30
0.0
 11
187.144262
 21
137.320738
 31
0.0
  0
LINE
  5
11C
100
AcDbEntity
  8
22
370
    30
  6
Continuous
 62
     7
100
AcDbLine
 10
188.644262
 20
143.940738
 30
0.0
 11
188.644262
 21
137.320738
 31
0.0
  0
LINE
  5
11D
100
AcDbEntity
  8
22
370
    30
  6
Continuous
 62
     7
100
AcDbLine
 10
175.644262
 20
143.940738
 30
0.0
 11
189.644262
 21
143.940738
 31
0.0
  0
LINE
  5
11E
100
AcDbEntity
  8
22
370
    30
  6
Continuous
 62
     7
100
AcDbLine
 10
175.644262
 20
145.190738
 30
0.0
 11
189.644262
 21
145.190738
 31
0.0
  0
LINE
  5
11F
100
AcDbEntity
  8
22
370
    30
  6
Continuous
 62
     7
100
AcDbLine
 10
175.644262
 20
123.580738
 30
0.0
 11
175.644262
 21
120.830738
 31
0.0
  0
LINE
  5
120
100
AcDbEntity
  8
22
370
    30
  6
Continuous
 62
     7
100
AcDbLine
 10
189.644262
 20
123.580738
 30
0.0
 11
189.644262
 21
120.830738
 31
0.0
  0
LINE
  5
121
100
AcDbEntity
  8
22
370
    30
  6
Continuous
 62
     7
100
AcDbLine
 10
189.644262
 20
120.830738
 30
0.0
 11
175.644262
 21
120.830738
 31
0.0
  0
LINE
  5
122
100
AcDbEntity
  8
22
370
    30
  6
Continuous
 62
     7
100
AcDbLine
 10
182.144262
 20
134.510738
 30
0.0
 11
182.144262
 21
133.510738
 31
0.0
  0
LINE
  5
123
100
AcDbEntity
  8
22
370
    30
  6
Continuous
 62
     7
100
AcDbLine
 10
182.144262
 20
133.510738
 30
0.0
 11
181.144262
 21
133.510738
 31
0.0
  0
LINE
  5
124
100
AcDbEntity
  8
22
370
    30
  6
Continuous
 62
     7
100
AcDbLine
 10
181.144262
 20
132.510738
 30
0.0
 11
182.144262
 21
132.510738
 31
0.0
  0
LINE
  5
125
100
AcDbEntity
  8
22
370
    30
  6
Continuous
 62
     7
100
AcDbLine
 10
182.144262
 20
132.510738
 30
0.0
 11
182.144262
 21
131.510738
 31
0.0
  0
LINE
  5
126
100
AcDbEntity
  8
22
370
    30
  6
Continuous
 62
     7
100
AcDbLine
 10
183.144262
 20
134.510738
 30
0.0
 11
183.144262
 21
133.510738
 31
0.0
  0
LINE
  5
127
100
AcDbEntity
  8
22
370
    30
  6
Continuous
 62
     7
100
AcDbLine
 10
183.144262
 20
133.510738
 30
0.0
 11
184.144262
 21
133.510738
 31
0.0
  0
LINE
  5
128
100
AcDbEntity
  8
22
370
    30
  6
Continuous
 62
     7
100
AcDbLine
 10
184.144262
 20
132.510738
 30
0.0
 11
183.144262
 21
132.510738
 31
0.0
  0
LINE
  5
129
100
AcDbEntity
  8
22
370
    30
  6
Continuous
 62
     7
100
AcDbLine
 10
183.144262
 20
132.510738
 30
0.0
 11
183.144262
 21
131.510738
 31
0.0
  0
CIRCLE
  5
12A
100
AcDbEntity
  8
22
370
    30
  6
Continuous
 62
     7
100
AcDbCircle
 10
182.644262
 20
133.010738
 30
0.0
 40
2.5
  0
LINE
  5
12B
100
AcDbEntity
  8
22
370
    30
  6
Continuous
 62
     7
100
AcDbLine
 10
176.644262
 20
136.320738
 30
0.0
 11
176.644262
 21
129.700738
 31
0.0
  0
LINE
  5
12C
100
AcDbEntity
  8
22
370
    30
  6
Continuous
 62
     7
100
AcDbLine
 10
178.144262
 20
136.320738
 30
0.0
 11
178.144262
 21
129.700738
 31
0.0
  0
LINE
  5
12D
100
AcDbEntity
  8
22
370
    30
  6
Continuous
 62
     7
100
AcDbLine
 10
187.144262
 20
136.320738
 30
0.0
 11
187.144262
 21
129.700738
 31
0.0
  0
LINE
  5
12E
100
AcDbEntity
  8
22
370
    30
  6
Continuous
 62
     7
100
AcDbLine
 10
188.644262
 20
136.320738
 30
0.0
 11
188.644262
 21
129.700738
 31
0.0
  0
LINE
  5
12F
100
AcDbEntity
  8
22
370
    30
  6
Continuous
 62
     7
100
AcDbLine
 10
175.644262
 20
136.320738
 30
0.0
 11
189.644262
 21
136.320738
 31
0.0
  0
LINE
  5
130
100
AcDbEntity
  8
22
370
    30
  6
Continuous
 62
     7
100
AcDbLine
 10
175.644262
 20
129.700738
 30
0.0
 11
189.644262
 21
129.700738
 31
0.0
  0
LINE
  5
131
100
AcDbEntity
  8
22
370
    30
  6
Continuous
 62
     7
100
AcDbLine
 10
175.644262
 20
134.820738
 30
0.0
 11
176.644262
 21
134.820738
 31
0.0
  0
LINE
  5
132
100
AcDbEntity
  8
22
370
    30
  6
Continuous
 62
     7
100
AcDbLine
 10
189.644262
 20
134.820738
 30
0.0
 11
188.644262
 21
134.820738
 31
0.0
  0
LINE
  5
133
100
AcDbEntity
  8
22
370
    30
  6
Continuous
 62
     7
100
AcDbLine
 10
175.644262
 20
131.200738
 30
0.0
 11
176.644262
 21
131.200738
 31
0.0
  0
LINE
  5
134
100
AcDbEntity
  8
22
370
    30
  6
Continuous
 62
     7
100
AcDbLine
 10
189.644262
 20
131.200738
 30
0.0
 11
188.644262
 21
131.200738
 31
0.0
  0
LINE
  5
135
100
AcDbEntity
  8
22
370
    30
  6
Continuous
 62
     7
100
AcDbLine
 10
175.644262
 20
131.200738
 30
0.0
 11
175.644262
 21
127.200738
 31
0.0
  0
LINE
  5
136
100
AcDbEntity
  8
22
370
    30
  6
Continuous
 62
     7
100
AcDbLine
 10
189.644262
 20
131.200738
 30
0.0
 11
189.644262
 21
127.200738
 31
0.0
  0
ENDBLK
  5
137
100
AcDbEntity
  8
0
100
AcDbBlockEnd
  0
ENDSEC
  0
SECTION
  2
ENTITIES
  0
INSERT
  5
46
100
AcDbEntity
  8
0
370
     9
  6
Continuous
 62
     7
100
AcDbBlockReference
  2
*G0
 10
0.0
 20
0.0
 30
0.0
  0
LINE
  5
47
100
AcDbEntity
  8
22
370
    30
  6
Continuous
 62
     7
100
AcDbLine
 10
109.644262
 20
69.610738
 30
0.0
 11
188.644262
 21
69.610738
 31
0.0
  0
LINE
  5
48
100
AcDbEntity
  8
22
370
    30
  6
Continuous
 62
     7
100
AcDbLine
 10
108.644262
 20
63.010738
 30
0.0
 11
189.644262
 21
63.010738
 31
0.0
  0
LINE
  5
49
100
AcDbEntity
  8
22
370
    30
  6
Continuous
 62
     7
100
AcDbLine
 10
189.644262
 20
63.010738
 30
0.0
 11
189.644262
 21
69.510738
 31
0.0
  0
LINE
  5
4A
100
AcDbEntity
  8
22
370
    30
  6
Continuous
 62
     7
100
AcDbLine
 10
108.644262
 20
63.010738
 30
0.0
 11
108.644262
 21
69.510738
 31
0.0
  0
LINE
  5
4B
100
AcDbEntity
  8
22
370
    30
  6
Continuous
 62
     7
100
AcDbLine
 10
122.844262
 20
77.610738
 30
0.0
 11
175.444262
 21
77.610738
 31
0.0
  0
LINE
  5
4C
100
AcDbEntity
  8
22
370
    30
  6
Continuous
 62
     7
100
AcDbLine
 10
122.844262
 20
77.610738
 30
0.0
 11
122.844262
 21
69.610738
 31
0.0
  0
LINE
  5
4D
100
AcDbEntity
  8
22
370
    30
  6
Continuous
 62
     7
100
AcDbLine
 10
175.444262
 20
77.610738
 30
0.0
 11
175.444262
 21
69.710738
 31
0.0
  0
LINE
  5
4E
100
AcDbEntity
  8
22
370
    30
  6
Continuous
 62
     7
100
AcDbLine
 10
109.644262
 20
143.940738
 30
0.0
 11
109.644262
 21
122.080738
 31
0.0
  0
LINE
  5
4F
100
AcDbEntity
  8
22
370
    30
  6
Continuous
 62
     7
100
AcDbLine
 10
188.644262
 20
122.080738
 30
0.0
 11
188.644262
 21
143.940738
 31
0.0
  0
CIRCLE
  5
50
100
AcDbEntity
  8
22
370
    30
  6
Continuous
 62
     7
100
AcDbCircle
 10
141.644262
 20
126.510738
 30
0.0
 40
2.0
  0
CIRCLE
  5
51
100
AcDbEntity
  8
22
370
    30
  6
Continuous
 62
     7
100
AcDbCircle
 10
154.644262
 20
126.510738
 30
0.0
 40
2.0
  0
LINE
  5
52
100
AcDbEntity
  8
22
370
    30
  6
Continuous
 62
     7
100
AcDbLine
 10
108.644262
 20
120.510738
 30
0.0
 11
189.644262
 21
120.510738
 31
0.0
  0
LINE
  5
53
100
AcDbEntity
  8
22
370
    30
  6
Continuous
 62
     7
100
AcDbLine
 10
189.644262
 20
145.510738
 30
0.0
 11
108.644262
 21
145.510738
 31
0.0
  0
LINE
  5
54
100
AcDbEntity
  8
22
370
    30
  6
Continuous
 62
     7
100
AcDbLine
 10
122.844262
 20
145.510738
 30
0.0
 11
122.844262
 21
120.510738
 31
0.0
  0
LINE
  5
55
100
AcDbEntity
  8
22
370
    30
  6
Continuous
 62
     7
100
AcDbLine
 10
175.444262
 20
145.510738
 30
0.0
 11
175.444262
 21
120.510738
 31
0.0
  0
LINE
  5
56
100
AcDbEntity
  8
22
370
    30
  6
Continuous
 62
     7
100
AcDbLine
 10
122.644262
 20
69.610738
 30
0.0
 11
108.644262
 21
69.610738
 31
0.0
  0
LINE
  5
57
100
AcDbEntity
  8
22
370
    30
  6
Continuous
 62
     7
100
AcDbLine
 10
108.644262
 20
77.610738
 30
0.0
 11
108.644262
 21
69.610738
 31
0.0
  0
LINE
  5
58
100
AcDbEntity
  8
22
370
    30
  6
Continuous
 62
     7
100
AcDbLine
 10
121.913123
 20
84.110738
 30
0.0
 11
109.375401
 21
84.110738
 31
0.0
  0
LINE
  5
59
100
AcDbEntity
  8
22
370
    30
  6
Continuous
 62
     7
100
AcDbLine
 10
108.87577
 20
83.629955
 30
0.0
 11
108.644262
 21
77.610738
 31
0.0
  0
LINE
  5
5A
100
AcDbEntity
  8
22
370
    30
  6
Continuous
 62
     7
100
AcDbLine
 10
122.412754
 20
83.629955
 30
0.0
 11
122.644262
 21
77.610738
 31
0.0
  0
LINE
  5
5B
100
AcDbEntity
  8
22
370
    30
  6
Continuous
 62
     7
100
AcDbLine
 10
122.644262
 20
77.610738
 30
0.0
 11
122.644262
 21
69.610738
 31
0.0
  0
ARC
  5
5C
100
AcDbEntity
  8
22
370
    30
  6
Continuous
 62
     7
100
AcDbCircle
 10
121.913123
 20
83.610738
 30
0.0
 40
0.5
100
AcDbArc
 50
2.202598
 51
90.0
  0
ARC
  5
5D
100
AcDbEntity
  8
22
370
    30
  6
Continuous
 62
     7
100
AcDbCircle
 10
109.375401
 20
83.610738
 30
0.0
 40
0.5
100
AcDbArc
 50
90.0
 51
177.797402
  0
LINE
  5
5E
100
AcDbEntity
  8
22
370
    30
  6
Continuous
 62
     7
100
AcDbLine
 10
189.644262
 20
69.610738
 30
0.0
 11
175.644262
 21
69.610738
 31
0.0
  0
LINE
  5
5F
100
AcDbEntity
  8
22
370
    30
  6
Continuous
 62
     7
100
AcDbLine
 10
175.644262
 20
77.610738
 30
0.0
 11
175.644262
 21
69.610738
 31
0.0
  0
LINE
  5
60
100
AcDbEntity
  8
22
370
    30
  6
Continuous
 62
     7
100
AcDbLine
 10
188.913123
 20
84.110738
 30
0.0
 11
176.375401
 21
84.110738
 31
0.0
  0
LINE
  5
61
100
AcDbEntity
  8
22
370
    30
  6
Continuous
 62
     7
100
AcDbLine
 10
175.87577
 20
83.629955
 30
0.0
 11
175.644262
 21
77.610738
 31
0.0
  0
LINE
  5
62
100
AcDbEntity
  8
22
370
    30
  6
Continuous
 62
     7
100
AcDbLine
 10
189.412754
 20
83.629955
 30
0.0
 11
189.644262
 21
77.610738
 31
0.0
  0
LINE
  5
63
100
AcDbEntity
  8
22
370
    30
  6
Continuous
 62
     7
100
AcDbLine
 10
189.644262
 20
77.610738
 30
0.0
 11
189.644262
 21
69.610738
 31
0.0
  0
ARC
  5
64
100
AcDbEntity
  8
22
370
    30
  6
Continuous
 62
     7
100
AcDbCircle
 10
188.913123
 20
83.610738
 30
0.0
 40
0.5
100
AcDbArc
 50
2.202598
 51
90.0
  0
ARC
  5
65
100
AcDbEntity
  8
22
370
    30
  6
Continuous
 62
     7
100
AcDbCircle
 10
176.375401
 20
83.610738
 30
0.0
 40
0.5
100
AcDbArc
 50
90.0
 51
177.797402
  0
LINE
  5
66
100
AcDbEntity
  8
22
370
    30
  6
Continuous
 62
     7
100
AcDbLine
 10
108.644262
 20
145.510738
 30
0.0
 11
108.644262
 21
120.510738
 31
0.0
  0
LINE
  5
67
100
AcDbEntity
  8
22
370
    30
  6
Continuous
 62
     7
100
AcDbLine
 10
189.644262
 20
145.510738
 30
0.0
 11
189.644262
 21
120.510738
 31
0.0
  0
LINE
  5
68
100
AcDbEntity
  8
22
370
    30
  6
Continuous
 62
     7
100
AcDbLine
 10
124.644262
 20
130.010738
 30
0.0
 11
134.644262
 21
130.010738
 31
0.0
  0
LINE
  5
69
100
AcDbEntity
  8
22
370
    30
  6
Continuous
 62
     7
100
AcDbLine
 10
134.644262
 20
136.010738
 30
0.0
 11
124.644262
 21
136.010738
 31
0.0
  0
LINE
  5
6A
100
AcDbEntity
  8
22
370
    30
  6
Continuous
 62
     7
100
AcDbLine
 10
124.644262
 20
136.010738
 30
0.0
 11
124.644262
 21
130.010738
 31
0.0
  0
LINE
  5
6B
100
AcDbEntity
  8
22
370
    30
  6
Continuous
 62
     7
100
AcDbLine
 10
134.644262
 20
130.010738
 30
0.0
 11
134.644262
 21
136.010738
 31
0.0
  0
LINE
  5
6C
100
AcDbEntity
  8
22
370
    30
  6
Continuous
 62
     7
100
AcDbLine
 10
124.644262
 20
137.510738
 30
0.0
 11
134.644262
 21
137.510738
 31
0.0
  0
LINE
  5
6D
100
AcDbEntity
  8
22
370
    30
  6
Continuous
 62
     7
100
AcDbLine
 10
134.644262
 20
143.510738
 30
0.0
 11
124.644262
 21
143.510738
 31
0.0
  0
LINE
  5
6E
100
AcDbEntity
  8
22
370
    30
  6
Continuous
 62
     7
100
AcDbLine
 10
124.644262
 20
143.510738
 30
0.0
 11
124.644262
 21
137.510738
 31
0.0
  0
LINE
  5
6F
100
AcDbEntity
  8
22
370
    30
  6
Continuous
 62
     7
100
AcDbLine
 10
134.644262
 20
137.510738
 30
0.0
 11
134.644262
 21
143.510738
 31
0.0
  0
LINE
  5
70
100
AcDbEntity
  8
22
370
    30
  6
Continuous
 62
     7
100
AcDbLine
 10
124.644262
 20
122.510738
 30
0.0
 11
134.644262
 21
122.510738
 31
0.0
  0
LINE
  5
71
100
AcDbEntity
  8
22
370
    30
  6
Continuous
 62
     7
100
AcDbLine
 10
134.644262
 20
128.510738
 30
0.0
 11
124.644262
 21
128.510738
 31
0.0
  0
LINE
  5
72
100
AcDbEntity
  8
22
370
    30
  6
Continuous
 62
     7
100
AcDbLine
 10
124.644262
 20
128.510738
 30
0.0
 11
124.644262
 21
122.510738
 31
0.0
  0
LINE
  5
73
100
AcDbEntity
  8
22
370
    30
  6
Continuous
 62
     7
100
AcDbLine
 10
134.644262
 20
122.510738
 30
0.0
 11
134.644262
 21
128.510738
 31
0.0
  0
LINE
  5
74
100
AcDbEntity
  8
22
370
    30
  6
Continuous
 62
     7
100
AcDbLine
 10
163.644262
 20
130.010738
 30
0.0
 11
173.644262
 21
130.010738
 31
0.0
  0
LINE
  5
75
100
AcDbEntity
  8
22
370
    30
  6
Continuous
 62
     7
100
AcDbLine
 10
173.644262
 20
136.010738
 30
0.0
 11
163.644262
 21
136.010738
 31
0.0
  0
LINE
  5
76
100
AcDbEntity
  8
22
370
    30
  6
Continuous
 62
     7
100
AcDbLine
 10
163.644262
 20
136.010738
 30
0.0
 11
163.644262
 21
130.010738
 31
0.0
  0
LINE
  5
77
100
AcDbEntity
  8
22
370
    30
  6
Continuous
 62
     7
100
AcDbLine
 10
173.644262
 20
130.010738
 30
0.0
 11
173.644262
 21
136.010738
 31
0.0
  0
LINE
  5
78
100
AcDbEntity
  8
22
370
    30
  6
Continuous
 62
     7
100
AcDbLine
 10
163.644262
 20
137.510738
 30
0.0
 11
173.644262
 21
137.510738
 31
0.0
  0
LINE
  5
79
100
AcDbEntity
  8
22
370
    30
  6
Continuous
 62
     7
100
AcDbLine
 10
173.644262
 20
143.510738
 30
0.0
 11
163.644262
 21
143.510738
 31
0.0
  0
LINE
  5
7A
100
AcDbEntity
  8
22
370
    30
  6
Continuous
 62
     7
100
AcDbLine
 10
163.644262
 20
143.510738
 30
0.0
 11
163.644262
 21
137.510738
 31
0.0
  0
LINE
  5
7B
100
AcDbEntity
  8
22
370
    30
  6
Continuous
 62
     7
100
AcDbLine
 10
173.644262
 20
137.510738
 30
0.0
 11
173.644262
 21
143.510738
 31
0.0
  0
LINE
  5
7C
100
AcDbEntity
  8
22
370
    30
  6
Continuous
 62
     7
100
AcDbLine
 10
163.644262
 20
122.510738
 30
0.0
 11
173.644262
 21
122.510738
 31
0.0
  0
LINE
  5
7D
100
AcDbEntity
  8
22
370
    30
  6
Continuous
 62
     7
100
AcDbLine
 10
173.644262
 20
128.510738
 30
0.0
 11
163.644262
 21
128.510738
 31
0.0
  0
LINE
  5
7E
100
AcDbEntity
  8
22
370
    30
  6
Continuous
 62
     7
100
AcDbLine
 10
163.644262
 20
128.510738
 30
0.0
 11
163.644262
 21
122.510738
 31
0.0
  0
LINE
  5
7F
100
AcDbEntity
  8
22
370
    30
  6
Continuous
 62
     7
100
AcDbLine
 10
173.644262
 20
122.510738
 30
0.0
 11
173.644262
 21
128.510738
 31
0.0
  0
TEXT
  5
80
100
AcDbEntity
  8
22
370
     9
  6
Continuous
 62
     7
100
AcDbText
 10
164.644262
 20
138.510738
 30
0.0
 40
4.0
  1
+12V
 41
0.5
 11
164.644262
 21
138.510738
 31
0.0
100
AcDbText
 73
     1
  0
TEXT
  5
81
100
AcDbEntity
  8
22
370
     9
  6
Continuous
 62
     7
100
AcDbText
 10
165.644262
 20
131.010738
 30
0.0
 40
4.0
  1
OUT
 41
0.5
 11
165.644262
 21
131.010738
 31
0.0
100
AcDbText
 73
     1
  0
TEXT
  5
82
100
AcDbEntity
  8
22
370
     9
  6
Continuous
 62
     7
100
AcDbText
 10
165.644262
 20
123.510738
 30
0.0
 40
4.0
  1
GND
 41
0.5
 11
165.644262
 21
123.510738
 31
0.0
100
AcDbText
 73
     1
  0
LINE
  5
83
100
AcDbEntity
  8
22
370
    30
  6
Continuous
 62
     7
100
AcDbLine
 10
123.644262
 20
144.510738
 30
0.0
 11
174.644262
 21
144.510738
 31
0.0
  0
LINE
  5
84
100
AcDbEntity
  8
22
370
    30
  6
Continuous
 62
     7
100
AcDbLine
 10
174.644262
 20
121.510738
 30
0.0
 11
123.644262
 21
121.510738
 31
0.0
  0
LINE
  5
85
100
AcDbEntity
  8
22
370
    30
  6
Continuous
 62
     7
100
AcDbLine
 10
123.644262
 20
121.510738
 30
0.0
 11
123.644262
 21
144.510738
 31
0.0
  0
LINE
  5
86
100
AcDbEntity
  8
22
370
    30
  6
Continuous
 62
     7
100
AcDbLine
 10
174.644262
 20
144.510738
 30
0.0
 11
174.644262
 21
121.510738
 31
0.0
  0
DIMENSION
  5
92
100
AcDbEntity
  8
1
370
     9
  6
Continuous
 62
     7
100
AcDbDimension
  2
*D1
 10
199.144262
 20
63.210738
 30
0.0
 11
199.144262
 21
73.660738
 31
0.0
 71
     5
 72
     1
 41
1.0
 42
0.0
  1
20.9
100
AcDbAlignedDimension
 13
191.644262
 23
63.210738
 33
0.0
 14
191.644262
 24
84.110738
 34
0.0
 50
90.0
100
AcDbRotatedDimension
  0
DIMENSION
  5
9E
100
AcDbEntity
  8
1
370
     9
  6
Continuous
 62
     7
100
AcDbDimension
  2
*D2
 10
108.644262
 20
55.510738
 30
0.0
 11
149.144262
 21
55.510738
 31
0.0
 71
     5
 72
     1
 41
1.0
 42
0.0
  1
81
100
AcDbAlignedDimension
 13
108.644262
 23
61.010738
 33
0.0
 14
189.644262
 24
61.010738
 34
0.0
100
AcDbRotatedDimension
  0
DIMENSION
  5
AA
100
AcDbEntity
  8
1
370
     9
  6
Continuous
 62
     7
100
AcDbDimension
  2
*D3
 10
199.144262
 20
145.510738
 30
0.0
 11
199.144262
 21
133.010738
 31
0.0
 71
     5
 72
     1
 41
1.0
 42
0.0
  1
25
100
AcDbAlignedDimension
 13
191.644262
 23
145.510738
 33
0.0
 14
191.644262
 24
120.510738
 34
0.0
 50
90.0
100
AcDbRotatedDimension
  0
INSERT
  5
F1
100
AcDbEntity
  8
0
370
     9
  6
Continuous
 62
     7
100
AcDbBlockReference
  2
*G4
 10
0.0
 20
0.0
 30
0.0
  0
INSERT
  5
138
100
AcDbEntity
  8
0
370
     9
  6
Continuous
 62
     7
100
AcDbBlockReference
  2
*G5
 10
0.0
 20
0.0
 30
0.0
  0
LINE
  5
139
100
AcDbEntity
  8
23
370
    30
  6
Continuous
 62
     7
100
AcDbLine
 10
288.0
 20
6.3
 30
0.0
 11
288.0
 21
196.3
 31
0.0
  0
LINE
  5
13A
100
AcDbEntity
  8
23
370
    30
  6
Continuous
 62
     7
100
AcDbLine
 10
11.0
 20
6.3
 30
0.0
 11
288.0
 21
6.3
 31
0.0
  0
LINE
  5
13B
100
AcDbEntity
  8
23
370
    30
  6
Continuous
 62
     7
100
AcDbLine
 10
11.0
 20
196.3
 30
0.0
 11
11.0
 21
6.3
 31
0.0
  0
LINE
  5
13C
100
AcDbEntity
  8
23
370
    30
  6
Continuous
 62
     7
100
AcDbLine
 10
288.0
 20
196.3
 30
0.0
 11
11.0
 21
196.3
 31
0.0
  0
LINE
  5
13D
100
AcDbEntity
  8
128
370
     9
  6
Continuous
 62
     7
100
AcDbLine
 10
193.36
 20
6.3
 30
0.0
 11
193.36
 21
35.056
 31
0.0
  0
LINE
  5
13E
100
AcDbEntity
  8
128
370
     9
  6
Continuous
 62
     7
100
AcDbLine
 10
193.36
 20
20.86
 30
0.0
 11
288.0
 21
20.86
 31
0.0
  0
LINE
  5
13F
100
AcDbEntity
  8
128
370
     9
  6
Continuous
 62
     7
100
AcDbLine
 10
193.36
 20
17.584
 30
0.0
 11
215.2
 21
17.584
 31
0.0
  0
LINE
  5
140
100
AcDbEntity
  8
128
370
     9
  6
Continuous
 62
     7
100
AcDbLine
 10
193.36
 20
35.056
 30
0.0
 11
288.0
 21
35.056
 31
0.0
  0
LINE
  5
141
100
AcDbEntity
  8
128
370
     9
  6
Continuous
 62
     7
100
AcDbLine
 10
193.36
 20
30.324
 30
0.0
 11
277.08
 21
30.324
 31
0.0
  0
LINE
  5
142
100
AcDbEntity
  8
128
370
     9
  6
Continuous
 62
     7
100
AcDbLine
 10
215.2
 20
6.3
 30
0.0
 11
215.2
 21
20.86
 31
0.0
  0
LINE
  5
143
100
AcDbEntity
  8
128
370
     9
  6
Continuous
 62
     7
100
AcDbLine
 10
193.36
 20
25.592
 30
0.0
 11
288.0
 21
25.592
 31
0.0
  0
LINE
  5
144
100
AcDbEntity
  8
128
370
     9
  6
Continuous
 62
     7
100
AcDbLine
 10
215.2
 20
13.58
 30
0.0
 11
288.0
 21
13.58
 31
0.0
  0
LINE
  5
145
100
AcDbEntity
  8
128
370
     9
  6
Continuous
 62
     7
100
AcDbLine
 10
229.76
 20
20.86
 30
0.0
 11
229.76
 21
35.056
 31
0.0
  0
LINE
  5
146
100
AcDbEntity
  8
128
370
     9
  6
Continuous
 62
     7
100
AcDbLine
 10
277.08
 20
13.58
 30
0.0
 11
277.08
 21
20.86
 31
0.0
  0
LINE
  5
147
100
AcDbEntity
  8
128
370
     9
  6
Continuous
 62
     7
100
AcDbLine
 10
277.08
 20
25.592
 30
0.0
 11
277.08
 21
35.056
 31
0.0
  0
TEXT
  5
148
100
AcDbEntity
  8
128
370
     9
  6
Continuous
 62
     7
100
AcDbText
 10
215.928
 20
11.396
 30
0.0
 40
1.82
  1
TITLE
 41
0.8
 11
215.928
 21
11.396
 31
0.0
100
AcDbText
 73
     1
  0
TEXT
  5
149
100
AcDbEntity
  8
128
370
     9
  6
Continuous
 62
     7
100
AcDbText
 10
215.928
 20
18.676
 30
0.0
 40
1.82
  1
No.
 41
0.8
 11
215.928
 21
18.676
 31
0.0
100
AcDbText
 73
     1
  0
TEXT
  5
14A
100
AcDbEntity
  8
128
370
     9
  6
Continuous
 62
     7
100
AcDbText
 10
230.488
 20
32.872
 30
0.0
 40
1.82
  1
MATERIAL
 41
0.8
 11
230.488
 21
32.872
 31
0.0
100
AcDbText
 73
     1
  0
TEXT
  5
14B
100
AcDbEntity
  8
128
370
     9
  6
Continuous
 62
     7
100
AcDbText
 10
230.488
 20
28.14
 30
0.0
 40
1.82
  1
FINISH
 41
0.8
 11
230.488
 21
28.14
 31
0.0
100
AcDbText
 73
     1
  0
TEXT
  5
14C
100
AcDbEntity
  8
128
370
     9
  6
Continuous
 62
     7
100
AcDbText
 10
277.808
 20
32.872
 30
0.0
 40
1.82
  1
SCALE
 41
0.8
 11
277.808
 21
32.872
 31
0.0
100
AcDbText
 73
     1
  0
TEXT
  5
14D
100
AcDbEntity
  8
128
370
     9
  6
Continuous
 62
     7
100
AcDbText
 10
277.808
 20
18.676
 30
0.0
 40
1.82
  1
REV
 41
0.8
 11
277.808
 21
18.676
 31
0.0
100
AcDbText
 73
     1
  0
LINE
  5
14E
100
AcDbEntity
  8
1
370
     9
  6
Continuous
 62
     7
100
AcDbLine
 10
203.552
 20
16.492
 30
0.0
 11
202.096
 21
15.036
 31
0.0
  0
LINE
  5
14F
100
AcDbEntity
  8
1
370
     9
  6
Continuous
 62
     7
100
AcDbLine
 10
206.282
 20
13.398
 30
0.0
 11
204.826
 21
11.942
 31
0.0
  0
LINE
  5
150
100
AcDbEntity
  8
1
370
     9
  6
Continuous
 62
     7
100
AcDbLine
 10
205.944653
 20
14.516653
 30
0.0
 11
205.19
 21
13.762
 31
0.0
  0
ARC
  5
151
100
AcDbEntity
  8
1
370
     9
  6
Continuous
 62
     7
100
AcDbCircle
 10
205.880307
 20
14.581
 30
0.0
 40
0.091
100
AcDbArc
 50
-45.0
 51
90.0
  0
LINE
  5
152
100
AcDbEntity
  8
1
370
     9
  6
Continuous
 62
     7
100
AcDbLine
 10
205.19
 20
13.762
 30
0.0
 11
204.138184
 21
13.762
 31
0.0
  0
ARC
  5
153
100
AcDbEntity
  8
1
370
     9
  6
Continuous
 62
     7
100
AcDbCircle
 10
204.138184
 20
13.853
 30
0.0
 40
0.091
100
AcDbArc
 50
134.545137
 51
-90.0
  0
LINE
  5
154
100
AcDbEntity
  8
1
370
     9
  6
Continuous
 62
     7
100
AcDbLine
 10
204.07435
 20
13.917856
 30
0.0
 11
204.814002
 21
14.645856
 31
0.0
  0
LINE
  5
155
100
AcDbEntity
  8
1
370
     9
  6
Continuous
 62
     7
100
AcDbLine
 10
204.877836
 20
14.672
 30
0.0
 11
205.880307
 21
14.672
 31
0.0
  0
ARC
  5
156
100
AcDbEntity
  8
1
370
     9
  6
Continuous
 62
     7
100
AcDbCircle
 10
204.877836
 20
14.581
 30
0.0
 40
0.091
100
AcDbArc
 50
90.0
 51
134.545137
  0
LINE
  5
157
100
AcDbEntity
  8
1
370
     9
  6
Continuous
 62
     7
100
AcDbLine
 10
205.372
 20
13.762
 30
0.0
 11
206.126653
 21
14.516653
 31
0.0
  0
LINE
  5
158
100
AcDbEntity
  8
1
370
     9
  6
Continuous
 62
     7
100
AcDbLine
 10
206.282
 20
14.452307
 30
0.0
 11
206.282
 21
13.398
 31
0.0
  0
ARC
  5
159
100
AcDbEntity
  8
1
370
     9
  6
Continuous
 62
     7
100
AcDbCircle
 10
206.191
 20
14.452307
 30
0.0
 40
0.091
100
AcDbArc
 50
0.0
 51
135.0
  0
LINE
  5
15A
100
AcDbEntity
  8
1
370
     9
  6
Continuous
 62
     7
100
AcDbLine
 10
204.826
 20
11.942
 30
0.0
 11
202.187
 21
11.942
 31
0.0
  0
LINE
  5
15B
100
AcDbEntity
  8
1
370
     9
  6
Continuous
 62
     7
100
AcDbLine
 10
202.096
 20
12.033
 30
0.0
 11
202.096
 21
15.036
 31
0.0
  0
ARC
  5
15C
100
AcDbEntity
  8
1
370
     9
  6
Continuous
 62
     7
100
AcDbCircle
 10
202.187
 20
12.033
 30
0.0
 40
0.091
100
AcDbArc
 50
180.0
 51
-90.0
  0
LINE
  5
15D
100
AcDbEntity
  8
1
370
     9
  6
Continuous
 62
     7
100
AcDbLine
 10
203.552
 20
16.492
 30
0.0
 11
206.191
 21
16.492
 31
0.0
  0
ARC
  5
15E
100
AcDbEntity
  8
1
370
     9
  6
Continuous
 62
     7
100
AcDbCircle
 10
206.191
 20
16.401
 30
0.0
 40
0.091
100
AcDbArc
 50
0.0
 51
90.0
  0
LINE
  5
15F
100
AcDbEntity
  8
1
370
     9
  6
Continuous
 62
     7
100
AcDbLine
 10
206.282
 20
16.401
 30
0.0
 11
206.282
 21
15.673
 31
0.0
  0
ARC
  5
160
100
AcDbEntity
  8
1
370
     9
  6
Continuous
 62
     7
100
AcDbCircle
 10
206.191
 20
15.673
 30
0.0
 40
0.091
100
AcDbArc
 50
-90.0
 51
0.0
  0
LINE
  5
161
100
AcDbEntity
  8
1
370
     9
  6
Continuous
 62
     7
100
AcDbLine
 10
206.191
 20
15.582
 30
0.0
 11
203.097
 21
15.582
 31
0.0
  0
LINE
  5
162
100
AcDbEntity
  8
1
370
     9
  6
Continuous
 62
     7
100
AcDbLine
 10
203.006
 20
15.491
 30
0.0
 11
203.006
 21
13.762
 31
0.0
  0
ARC
  5
163
100
AcDbEntity
  8
1
370
     9
  6
Continuous
 62
     7
100
AcDbCircle
 10
203.097
 20
15.491
 30
0.0
 40
0.091
100
AcDbArc
 50
90.0
 51
180.0
  0
LINE
  5
164
100
AcDbEntity
  8
1
370
     9
  6
Continuous
 62
     7
100
AcDbLine
 10
203.006
 20
13.762
 30
0.0
 11
203.006
 21
12.943
 31
0.0
  0
ARC
  5
165
100
AcDbEntity
  8
1
370
     9
  6
Continuous
 62
     7
100
AcDbCircle
 10
203.097
 20
12.943
 30
0.0
 40
0.091
100
AcDbArc
 50
180.0
 51
-90.0
  0
LINE
  5
166
100
AcDbEntity
  8
1
370
     9
  6
Continuous
 62
     7
100
AcDbLine
 10
203.097
 20
12.852
 30
0.0
 11
205.281
 21
12.852
 31
0.0
  0
LINE
  5
167
100
AcDbEntity
  8
1
370
     9
  6
Continuous
 62
     7
100
AcDbLine
 10
205.372
 20
12.943
 30
0.0
 11
205.372
 21
13.762
 31
0.0
  0
ARC
  5
168
100
AcDbEntity
  8
1
370
     9
  6
Continuous
 62
     7
100
AcDbCircle
 10
205.281
 20
12.943
 30
0.0
 40
0.091
100
AcDbArc
 50
-90.0
 51
0.0
  0
TEXT
  5
169
100
AcDbEntity
  8
1
370
     9
  6
Continuous
 62
     7
100
AcDbText
 10
195.544
 20
7.002568
 30
0.0
 40
3.64
  1
GEOTECHSERVICE  INC
 41
0.252632
 11
195.544
 21
7.002568
 31
0.0
100
AcDbText
 73
     1
  0
TEXT
  5
16A
100
AcDbEntity
  8
128
370
     9
  6
Continuous
 62
     7
100
AcDbText
 10
279.992
 20
29.05
 30
0.0
 40
2.548
  1
1/1
 50
0.278674
 41
0.8
 11
279.992
 21
29.05
 31
0.0
100
AcDbText
 73
     1
  0
TEXT
  5
16B
100
AcDbEntity
  8
128
370
     9
  6
Continuous
 62
     7
100
AcDbText
 10
229.0
 20
8.1
 30
0.0
 40
3.64
  1
外形寸法図
 50
-0.069131
 11
229.0
 21
8.1
 31
0.0
100
AcDbText
 73
     1
  0
TEXT
  5
16C
100
AcDbEntity
  8
128
370
     9
  6
Continuous
 62
     7
100
AcDbText
 10
223.2
 20
14.9
 30
0.0
 40
3.64
  1
GS-1209　熱電対変換器
 50
-0.069131
 41
0.75
 11
223.2
 21
14.9
 31
0.0
100
AcDbText
 73
     1
  0
TEXT
  5
16D
100
AcDbEntity
  8
128
370
     9
  6
Continuous
 62
     7
100
AcDbText
 10
195.544
 20
31.416
 30
0.0
 40
2.548
  1
'08-01-10
 50
0.285133
 41
0.490581
 11
195.544
 21
31.416
 31
0.0
100
AcDbText
 73
     1
  0
TEXT
  5
16E
100
AcDbEntity
  8
22
370
     9
  6
Continuous
 62
     7
100
AcDbText
 10
143.744262
 20
140.010738
 30
0.0
 40
4.0
  1
GS-1209
 41
0.35
 11
143.744262
 21
140.010738
 31
0.0
100
AcDbText
 73
     1
  0
TEXT
  5
16F
100
AcDbEntity
  8
22
370
     9
  6
Continuous
 62
     7
100
AcDbText
 10
137.5
 20
135.5
 30
0.0
 40
4.0
  1
熱電対変換器
 41
0.875
 11
137.5
 21
135.5
 31
0.0
100
AcDbText
 73
     1
  0
TEXT
  5
170
100
AcDbEntity
  8
22
370
     9
  6
Continuous
 62
     7
100
AcDbText
 10
126.8
 20
138.3
 30
0.0
 40
4.0
  1
IN-
 41
0.5
 11
126.8
 21
138.3
 31
0.0
100
AcDbText
 73
     1
  0
TEXT
  5
171
100
AcDbEntity
  8
22
370
     9
  6
Continuous
 62
     7
100
AcDbText
 10
126.7
 20
130.9
 30
0.0
 40
4.0
  1
IN+
 41
0.5
 11
126.7
 21
130.9
 31
0.0
100
AcDbText
 73
     1
  0
TEXT
  5
172
100
AcDbEntity
  8
22
370
     9
  6
Continuous
 62
     7
100
AcDbText
 10
124.644262
 20
123.251824
 30
0.0
 40
4.0
  1
(GND)
 41
0.5
 11
124.644262
 21
123.251824
 31
0.0
100
AcDbText
 73
     1
  0
TEXT
  5
173
100
AcDbEntity
  8
22
370
     9
  6
Continuous
 62
     7
100
AcDbText
 10
138.60354
 20
129.510738
 30
0.0
 40
3.0
  1
SPAN
 41
0.5
 11
138.60354
 21
129.510738
 31
0.0
100
AcDbText
 73
     1
  0
TEXT
  5
174
100
AcDbEntity
  8
22
370
     9
  6
Continuous
 62
     7
100
AcDbText
 10
151.652976
 20
129.510738
 30
0.0
 40
3.0
  1
ZERO
 41
0.5
 11
151.652976
 21
129.510738
 31
0.0
100
AcDbText
 73
     1
  0
ENDSEC
  0
SECTION
  2
OBJECTS
  0
DICTIONARY
  5
19
100
AcDbDictionary
280
     0
281
     1
  3
ACAD_GROUP
350
1A
  3
ACAD_MLINESTYLE
350
1B
  3
ACAD_LAYOUT
350
1E
  3
ACAD_PLOTSETTINGS
350
22
  3
ACAD_PLOTSTYLENAME
350
1F
  3
ACAD_WIPEOUT_VARS
350
23
  0
DICTIONARY
  5
1A
102
{ACAD_REACTORS
330
19
102
}
100
AcDbDictionary
280
     0
281
     1
  0
DICTIONARY
  5
1B
102
{ACAD_REACTORS
330
19
102
}
100
AcDbDictionary
280
     0
281
     1
  3
Standard
350
1C
  0
MLINESTYLE
  5
1C
102
{ACAD_REACTORS
330
1B
102
}
100
AcDbMlineStyle
  2
Standard
 70
     0
  3

 62
     0
 51
90.0
 52
90.0
 71
     2
 49
0.5
 62
   256
  6
ByLayer
 49
-0.5
 62
   256
  6
ByLayer
  0
ACDBDICTIONARYWDFLT
  5
1F
102
{ACAD_REACTORS
330
19
102
}
100
AcDbDictionary
281
     1
  3
Normal
350
1D
100
AcDbDictionaryWithDefault
340
1D
  0
ACDBPLACEHOLDER
  5
1D
102
{ACAD_REACTORS
330
1F
102
}
  0
LAYOUT
  5
20
102
{ACAD_REACTORS
330
1E
102
}
100
AcDbPlotSettings
  1

  2

  4

  6

 40
0.0
 41
0.0
 42
0.0
 43
0.0
 44
0.0
 45
0.0
 46
0.0
 47
0.0
 48
0.0
 49
0.0
140
0.0
141
0.0
142
1.0
143
1.0
 70
  1024
 72
     0
 73
     0
 74
     0
  7

 75
     0
147
1.0
148
0.0
149
0.0
100
AcDbLayout
  1
Model
 70
     0
 71
     0
 10
0.0
 20
0.0
 11
0.0
 21
0.0
 12
0.0
 22
0.0
 32
0.0
 14
0.0
 24
0.0
 34
0.0
 15
0.0
 25
0.0
 35
0.0
146
0.0
 13
0.0
 23
0.0
 33
0.0
 16
0.0
 26
0.0
 36
0.0
 17
0.0
 27
0.0
 37
0.0
 76
     0
330
A
331
0
345
0
346
0
  0
LAYOUT
  5
21
102
{ACAD_REACTORS
330
1E
102
}
100
AcDbPlotSettings
  1

  2

  4

  6

 40
0.0
 41
0.0
 42
0.0
 43
0.0
 44
0.0
 45
0.0
 46
0.0
 47
0.0
 48
0.0
 49
0.0
140
0.0
141
0.0
142
1.0
143
1.0
 70
     0
 72
     0
 73
     0
 74
     0
  7

 75
     0
147
1.0
148
0.0
149
0.0
100
AcDbLayout
  1
Layout1
 70
     0
 71
     0
 10
0.0
 20
0.0
 11
0.0
 21
0.0
 12
0.0
 22
0.0
 32
0.0
 14
0.0
 24
0.0
 34
0.0
 15
0.0
 25
0.0
 35
0.0
146
0.0
 13
0.0
 23
0.0
 33
0.0
 16
0.0
 26
0.0
 36
0.0
 17
0.0
 27
0.0
 37
0.0
 76
     0
330
B
331
0
345
0
346
0
  0
DICTIONARY
  5
1E
102
{ACAD_REACTORS
330
19
102
}
100
AcDbDictionary
280
     0
281
     1
  3
Layout1
350
21
  3
Model
350
20
  0
DICTIONARY
  5
22
102
{ACAD_REACTORS
330
19
102
}
100
AcDbDictionary
280
     0
281
     1
  0
WIPEOUTVARIABLES
  5
23
100
AcDbWipeoutVariables
 70
     1
  0
ENDSEC
  0
EOF
